<?xml version="1.0" standalone="no"?>
<!DOCTYPE svg PUBLIC "-//W3C//DTD SVG 1.1//EN" "http://www.w3.org/Graphics/SVG/1.1/DTD/svg11.dtd" >
<svg xmlns="http://www.w3.org/2000/svg" width="100%" height="100%">
<metadata>
Created by FontXChange 20100429 at Thu Oct 10 19:21:07 2013
 By Mario Ochoa
[c] Copyright 2000, The Font Bureau, Inc. Designed by Cyrus Highsmith. All Rights Reserved.
</metadata>
<defs>
<font id="DispatchCond-Black" horiz-adv-x="642" >
  <font-face 
    font-family="DispatchCond"
    font-weight="900"
    font-stretch="normal"
    units-per-em="1000"
    panose-1="2 0 10 3 0 0 0 0 0 0"
    ascent="800"
    descent="-200"
    x-height="483"
    cap-height="736"
    bbox="-35 -214 1605 1015"
    underline-thickness="20"
    underline-position="-133"
    stemh="141"
    stemv="183"
    unicode-range="U+0020-FB02"
  />
    <missing-glyph />
    <glyph glyph-name="NUL" horiz-adv-x="0" 
 />
    <glyph glyph-name="Eth" unicode="&#xd0;" horiz-adv-x="706" 
d="M30 -1v147h56v161h-55v123h55v155h-56v151h330c242 0 316 -42 316 -367s-77 -369 -316 -369c-200 0 -313 -1 -330 -1zM280 135h82c98 0 115 49 115 203v60c0 154 -17 198 -115 198h-82v-166h93v-123h-93v-172z" />
    <glyph glyph-name="eth" unicode="&#xf0;" horiz-adv-x="585" 
d="M477 634h88v-145h-53c13 -65 21 -135 21 -197c0 -262 -63 -301 -254 -301c-175 0 -250 30 -250 256c0 227 64 248 158 248c36 0 104 -13 149 -33c-9 51 -26 112 -41 141h-83v145h220c13 -23 29 -63 45 -114zM282 108c58 0 68 27 68 138c0 30 -1 78 -4 106
c-31 10 -49 13 -80 13c-39 0 -53 -10 -53 -119c0 -120 11 -138 69 -138z" />
    <glyph glyph-name="Lslash" unicode="&#x141;" horiz-adv-x="663" 
d="M86 296l-41 -7l-21 122l62 11v163h-56v151h335v-151h-85v-128l87 15l21 -122l-108 -19v-191h176v148h182v-288h-608v147h56v149z" />
    <glyph glyph-name="lslash" unicode="&#x142;" horiz-adv-x="356" 
d="M90 283l-41 -7l-21 122l62 11v204h-60v145h243v-318l44 8l21 -122l-65 -11v-175h63v-140h-306v140h60v143z" />
    <glyph glyph-name="Scaron" unicode="&#x160;" horiz-adv-x="662" 
d="M322 -10c-139 0 -251 15 -282 21v238h180v-123c19 -5 71 -7 104 -7c100 0 115 15 115 82c0 60 -22 68 -135 88c-218 41 -267 67 -267 250c0 162 80 207 288 207c102 0 245 -14 281 -25v-215h-179v102c-14 3 -73 5 -104 5c-70 0 -92 -10 -92 -70c0 -56 21 -68 128 -87
c223 -39 277 -68 277 -245c0 -171 -63 -221 -314 -221zM342 762l-195 134l50 90l145 -63l143 63l52 -89z" />
    <glyph glyph-name="scaron" unicode="&#x161;" horiz-adv-x="512" 
d="M255 -4c-116 0 -201 11 -225 16v128h171v-45c7 -1 34 -2 54 -2c56 0 66 3 66 35c0 34 -7 38 -111 52c-151 18 -184 49 -184 161c0 119 63 156 219 156c112 0 189 -11 227 -22v-133h-167v51c-7 2 -38 3 -54 3c-44 0 -55 -8 -55 -35c0 -30 11 -36 108 -47
c165 -18 188 -45 188 -161c0 -120 -52 -157 -237 -157zM248 514l-195 134l50 90l145 -63l143 63l52 -89z" />
    <glyph glyph-name="Yacute" unicode="&#xdd;" horiz-adv-x="752" 
d="M204 0v147h77v122l-196 316h-55v151h334v-142h-76s98 -166 115 -197c18 33 119 197 119 197h-76v142h286v-151h-55l-202 -314v-124h78v-147h-349zM272 763l-50 95l242 156l79 -152z" />
    <glyph glyph-name="yacute" unicode="&#xfd;" horiz-adv-x="620" 
d="M126 -179v134h94l25 48l-181 339h-39v143h287v-133h-59l44 -101c20 -41 35 -80 44 -109c9 28 24 67 43 109l40 101h-53v133h234v-143h-34l-192 -387h60v-134h-313zM205 515l-50 95l242 156l79 -152z" />
    <glyph glyph-name="Thorn" unicode="&#xde;" horiz-adv-x="675" 
d="M278 616h136c155 0 241 -29 241 -250c0 -222 -88 -254 -243 -254h-134v-112h-248v147h56v438h-56v151h248v-120zM278 251h123c40 0 62 26 62 113c0 86 -24 111 -64 111h-121v-224z" />
    <glyph glyph-name="thorn" unicode="&#xfe;" horiz-adv-x="584" 
d="M20 -179v137h44v645h-44v145h227v-302c46 25 122 48 174 48c95 0 134 -60 134 -249c0 -190 -41 -252 -136 -252c-59 0 -130 16 -172 34v-69h56v-137h-283zM325 124c33 0 46 27 46 119c0 93 -11 111 -47 111c-37 0 -56 -4 -77 -8v-217c19 -3 40 -5 78 -5z" />
    <glyph glyph-name="Zcaron" unicode="&#x17d;" horiz-adv-x="654" 
d="M30 0v162l382 446h-205v-121h-172v249h584v-167l-381 -445h213v144h173v-268h-594zM342 762l-195 134l50 90l145 -63l143 63l52 -89z" />
    <glyph glyph-name="zcaron" unicode="&#x17e;" horiz-adv-x="530" 
d="M30 -2v136l294 243h-125v-37h-164v143h470v-138l-288 -245h128v50h165v-152h-480zM279 514l-195 134l50 90l145 -63l143 63l52 -89z" />
    <glyph glyph-name="onehalf" unicode="&#xbd;" 
d="M27 0v63h93v48c0 167 71 208 174 214v75h-217v194h69v-131h148v70h-49v192h166v-192h-48v-70h143v131h69v-194h-212v-74c102 -6 173 -43 173 -213v-50h89v-63h-161v100c0 118 -22 152 -101 159v-110h-69v110c-81 -5 -102 -34 -102 -157v-102h-165z" />
    <glyph glyph-name="onequarter" unicode="&#xbc;" 
d="M27 0v63h93v48c0 167 71 208 174 214v75h-217v194h69v-131h148v70h-49v192h166v-192h-48v-70h143v131h69v-194h-212v-74c102 -6 173 -43 173 -213v-50h89v-63h-161v100c0 118 -22 152 -101 159v-110h-69v110c-81 -5 -102 -34 -102 -157v-102h-165z" />
    <glyph glyph-name="onesuperior" unicode="&#xb9;" 
d="M27 0v63h93v48c0 167 71 208 174 214v75h-217v194h69v-131h148v70h-49v192h166v-192h-48v-70h143v131h69v-194h-212v-74c102 -6 173 -43 173 -213v-50h89v-63h-161v100c0 118 -22 152 -101 159v-110h-69v110c-81 -5 -102 -34 -102 -157v-102h-165z" />
    <glyph glyph-name="threequarters" unicode="&#xbe;" 
d="M27 0v63h93v48c0 167 71 208 174 214v75h-217v194h69v-131h148v70h-49v192h166v-192h-48v-70h143v131h69v-194h-212v-74c102 -6 173 -43 173 -213v-50h89v-63h-161v100c0 118 -22 152 -101 159v-110h-69v110c-81 -5 -102 -34 -102 -157v-102h-165z" />
    <glyph glyph-name="threesuperior" unicode="&#xb3;" 
d="M27 0v63h93v48c0 167 71 208 174 214v75h-217v194h69v-131h148v70h-49v192h166v-192h-48v-70h143v131h69v-194h-212v-74c102 -6 173 -43 173 -213v-50h89v-63h-161v100c0 118 -22 152 -101 159v-110h-69v110c-81 -5 -102 -34 -102 -157v-102h-165z" />
    <glyph glyph-name="twosuperior" unicode="&#xb2;" 
d="M27 0v63h93v48c0 167 71 208 174 214v75h-217v194h69v-131h148v70h-49v192h166v-192h-48v-70h143v131h69v-194h-212v-74c102 -6 173 -43 173 -213v-50h89v-63h-161v100c0 118 -22 152 -101 159v-110h-69v110c-81 -5 -102 -34 -102 -157v-102h-165z" />
    <glyph glyph-name="brokenbar" unicode="&#xa6;" 
d="M27 0v63h93v48c0 167 71 208 174 214v75h-217v194h69v-131h148v70h-49v192h166v-192h-48v-70h143v131h69v-194h-212v-74c102 -6 173 -43 173 -213v-50h89v-63h-161v100c0 118 -22 152 -101 159v-110h-69v110c-81 -5 -102 -34 -102 -157v-102h-165z" />
    <glyph glyph-name="minus" unicode="&#x2212;" 
d="M27 0v63h93v48c0 167 71 208 174 214v75h-217v194h69v-131h148v70h-49v192h166v-192h-48v-70h143v131h69v-194h-212v-74c102 -6 173 -43 173 -213v-50h89v-63h-161v100c0 118 -22 152 -101 159v-110h-69v110c-81 -5 -102 -34 -102 -157v-102h-165z" />
    <glyph glyph-name="multiply" unicode="&#xd7;" 
d="M27 0v63h93v48c0 167 71 208 174 214v75h-217v194h69v-131h148v70h-49v192h166v-192h-48v-70h143v131h69v-194h-212v-74c102 -6 173 -43 173 -213v-50h89v-63h-161v100c0 118 -22 152 -101 159v-110h-69v110c-81 -5 -102 -34 -102 -157v-102h-165z" />
    <glyph glyph-name="space" unicode=" " horiz-adv-x="182" 
 />
    <glyph glyph-name="exclam" unicode="!" horiz-adv-x="358" 
d="M109 236l-45 500h230l-44 -500h-141zM74 0v191h210v-191h-210z" />
    <glyph glyph-name="quotedbl" unicode="&#x22;" horiz-adv-x="518" 
d="M309 452l-34 284h208l-34 -284h-140zM69 452l-34 284h208l-34 -284h-140z" />
    <glyph glyph-name="numbersign" unicode="#" horiz-adv-x="611" 
d="M246 158l-34 -258l-145 15l32 243h-69v134h86l12 88h-98v133h115l37 281l145 -15l-35 -266h66l37 281l145 -15l-35 -266h76v-133h-93l-12 -88h105v-134h-122l-34 -258l-145 15l32 243h-66zM273 384l-14 -96h72l14 96h-72z" />
    <glyph glyph-name="dollar" unicode="$" horiz-adv-x="601" 
d="M231 -108v101c-103 3 -174 15 -201 20v211h181v-89c19 -4 50 -6 84 -6c82 0 101 6 101 78c0 56 -16 67 -109 83c-214 33 -260 69 -260 242c0 146 52 200 199 213v85h148v-85c78 -3 150 -14 178 -22v-205h-181v87c-13 2 -50 4 -77 4c-56 0 -80 -8 -80 -72
c0 -57 19 -70 111 -85c227 -34 260 -61 260 -235c0 -149 -35 -206 -208 -222v-103h-146z" />
    <glyph glyph-name="percent" unicode="%" horiz-adv-x="1156" 
d="M245 248c-149 0 -220 41 -220 248c0 208 73 251 222 251s219 -41 219 -249c0 -207 -72 -250 -221 -250zM532 -30l-146 45l238 748l145 -46zM910 -14c-149 0 -220 41 -220 249s73 251 222 251s219 -41 219 -249s-72 -251 -221 -251zM247 367c52 0 61 19 61 111v37
c0 92 -11 108 -63 108c-53 0 -61 -14 -61 -106v-37c0 -92 10 -113 63 -113zM912 106c52 0 61 19 61 111v36c0 92 -11 109 -63 109c-53 0 -61 -15 -61 -107v-36c0 -92 10 -113 63 -113z" />
    <glyph glyph-name="ampersand" unicode="&#x26;" horiz-adv-x="775" 
d="M174 415c-33 46 -55 92 -55 148c0 143 86 185 259 185c104 0 201 -10 242 -16v-214h-175v89c-12 3 -52 4 -73 4c-58 0 -71 -15 -71 -52c0 -32 17 -54 83 -126l75 -82l30 102h237v-143h-139l-24 -73l82 -90h109v-147h-205l-63 68c-29 -62 -69 -78 -152 -78
c-93 0 -204 7 -255 53c-37 33 -49 97 -49 195c0 99 33 149 144 177zM390 172c0 1 -120 132 -120 132l-24 26c-41 -22 -39 -53 -39 -96c0 -47 3 -70 19 -85c17 -16 64 -23 103 -23c31 0 44 5 61 46z" />
    <glyph glyph-name="quotesingle" unicode="'" horiz-adv-x="278" 
d="M69 452l-34 284h208l-34 -284h-140z" />
    <glyph glyph-name="parenleft" unicode="(" horiz-adv-x="409" 
d="M379 -179c-309 0 -349 99 -349 466s40 471 349 471v-147c-177 0 -186 -53 -186 -324c0 -269 9 -325 186 -325v-141z" />
    <glyph glyph-name="parenright" unicode=")" horiz-adv-x="409" 
d="M30 -179v141c177 0 186 56 186 325c0 271 -9 324 -186 324v147c309 0 349 -104 349 -471s-40 -466 -349 -466z" />
    <glyph glyph-name="asterisk" unicode="*" horiz-adv-x="585" 
d="M226 203l13 179l-143 -100l-66 113l154 79l-153 80l66 114l142 -100l-13 180h131l-11 -180l142 100l66 -114l-153 -80l154 -79l-66 -113l-142 99l10 -178h-131z" />
    <glyph glyph-name="plus" unicode="+" horiz-adv-x="508" 
d="M183 36v151h-149v133h149v151h143v-151h148v-133h-148v-151h-143z" />
    <glyph glyph-name="comma" unicode="," horiz-adv-x="285" 
d="M123 -122l-82 40l37 324l187 -103z" />
    <glyph glyph-name="hyphen" unicode="-" horiz-adv-x="359" 
d="M34 222v141h291v-141h-291z" />
    <glyph glyph-name="period" unicode="." horiz-adv-x="316" 
d="M53 0v194h210v-194h-210z" />
    <glyph glyph-name="slash" unicode="/" horiz-adv-x="461" 
d="M185 -45l-155 51l246 770l155 -50z" />
    <glyph glyph-name="zero" unicode="0" horiz-adv-x="651" 
d="M324 -12c-225 0 -294 73 -294 380s71 380 296 380c226 0 295 -71 295 -378s-71 -382 -297 -382zM326 131c82 0 101 31 101 179v115c0 149 -21 176 -103 176c-81 0 -101 -25 -101 -174v-115c0 -148 22 -181 103 -181z" />
    <glyph glyph-name="one" unicode="1" horiz-adv-x="416" 
d="M35 0v147h86v438h-91v151h281v-589h75v-147h-351z" />
    <glyph glyph-name="two" unicode="2" horiz-adv-x="619" 
d="M30 0v187l227 185c115 94 131 100 131 168c0 54 -15 63 -92 63c-26 0 -62 -1 -76 -4v-81h-176v207c44 10 166 23 249 23c231 0 280 -37 280 -202c0 -115 -34 -141 -213 -287l-157 -128h201v93h175v-224h-549z" />
    <glyph glyph-name="three" unicode="3" horiz-adv-x="630" 
d="M66 -18l-12 151c210 13 302 21 333 44c18 13 22 36 22 64s-3 45 -22 59c-30 21 -105 28 -146 31v131l159 146h-202v-90h-171v218h534v-163l-152 -140c47 -7 103 -25 132 -48c38 -31 50 -71 50 -138c0 -104 -12 -147 -50 -180c-59 -52 -190 -68 -475 -85z" />
    <glyph glyph-name="four" unicode="4" horiz-adv-x="649" 
d="M283 0v147h82v78h-340v174l290 389l146 -103l-254 -330h158v111h185v-111h69v-130h-69v-78h69v-147h-336z" />
    <glyph glyph-name="five" unicode="5" horiz-adv-x="630" 
d="M66 -18l-12 151c210 13 302 21 333 44c18 13 22 34 22 61s-3 46 -22 60c-31 22 -132 33 -344 44l12 394h506v-218h-173v85h-180l-4 -129c138 -6 278 -15 337 -67c39 -34 50 -74 50 -162c0 -108 -12 -145 -50 -178c-59 -52 -190 -68 -475 -85z" />
    <glyph glyph-name="six" unicode="6" horiz-adv-x="632" 
d="M313 -11c-249 0 -283 75 -283 376v7c0 154 11 229 72 282c53 45 206 73 415 100l26 -152c-188 -26 -282 -41 -309 -64c-20 -17 -21 -41 -21 -90v-4c29 8 116 19 171 19c176 0 215 -28 215 -234c0 -171 -55 -240 -286 -240zM315 123c76 0 104 17 104 96
c0 91 -8 111 -78 111c-49 0 -96 -5 -128 -11v-65c0 -108 20 -131 102 -131z" />
    <glyph glyph-name="seven" unicode="7" horiz-adv-x="614" 
d="M314 736l-167 -77l270 -554h-211v86h-181v-218h564v175z" />
    <glyph glyph-name="eight" unicode="8" horiz-adv-x="654" 
d="M324 -12c-234 0 -294 62 -294 215c0 105 18 136 115 184c-79 44 -92 86 -92 161c0 154 67 200 279 200c210 0 274 -46 274 -200c0 -69 -14 -100 -97 -151c102 -48 115 -87 115 -194c0 -153 -63 -215 -300 -215zM390 446c43 35 45 50 45 107c0 51 -39 58 -108 58
c-67 0 -93 -6 -93 -58s25 -59 112 -91zM325 125c89 0 113 17 113 73c0 77 -17 82 -139 123l-33 11c-58 -44 -60 -61 -60 -134c0 -56 32 -73 119 -73z" />
    <glyph glyph-name="nine" unicode="9" horiz-adv-x="632" 
d="M114 747l-25 -148c188 -26 282 -42 308 -64c20 -18 22 -43 22 -93v-5c-29 8 -117 19 -171 19c-176 0 -215 -27 -215 -234c0 -171 55 -239 285 -239c249 0 284 74 284 375v8c0 153 -12 229 -73 281c-52 46 -206 73 -415 100zM291 323c48 0 95 -4 128 -10v-64
c0 -108 -20 -129 -103 -129c-75 0 -103 15 -103 93c0 91 8 110 78 110z" />
    <glyph glyph-name="colon" unicode=":" horiz-adv-x="316" 
d="M53 294v191h210v-191h-210zM53 0v191h210v-191h-210z" />
    <glyph glyph-name="semicolon" unicode=";" horiz-adv-x="313" 
d="M48 294v191h210v-191h-210zM123 -122l-82 40l36 322l187 -103z" />
    <glyph glyph-name="less" unicode="&#x3c;" horiz-adv-x="447" 
d="M298 -2l-263 277l263 279l96 -97l-173 -182l173 -182z" />
    <glyph glyph-name="equal" unicode="=" horiz-adv-x="480" 
d="M45 295v122h390v-122h-390zM45 99v122h390v-122h-390z" />
    <glyph glyph-name="greater" unicode="&#x3e;" horiz-adv-x="447" 
d="M149 -2l-96 95l173 182l-173 182l96 97l263 -279z" />
    <glyph glyph-name="question" unicode="?" horiz-adv-x="588" 
d="M171 236v126c198 98 202 95 202 187c0 42 -19 59 -95 59c-31 0 -59 -3 -73 -6v-138h-180v257c40 10 133 27 253 27c238 0 285 -42 285 -200c0 -133 -35 -161 -217 -246v-66h-175zM152 0v191h211v-191h-211z" />
    <glyph glyph-name="at" unicode="@" horiz-adv-x="985" 
d="M492 -198c-427 0 -462 125 -462 439s35 440 462 440s463 -118 463 -432c0 -190 -23 -258 -409 -258l-20 57c-51 -33 -124 -56 -169 -56c-110 0 -150 53 -118 256c29 190 68 246 162 246c46 0 125 -20 179 -49l20 40h158l-61 -388c131 1 150 35 150 154
c0 275 -25 338 -355 338c-329 0 -355 -71 -355 -347s26 -348 355 -348h170v-92h-170zM451 128c29 0 61 13 74 21l26 193c-21 10 -52 16 -75 16c-30 0 -38 -16 -53 -111c-17 -103 -10 -119 28 -119z" />
    <glyph glyph-name="A" unicode="A" horiz-adv-x="776" 
d="M260 519l-27 84h90v138h-298v-147h53l205 -594h207l206 594h55v147h-346v-138h94l-27 -84h-212zM436 406l-20 -64c-15 -49 -40 -128 -49 -163c-7 35 -35 117 -50 163l-21 64h140z" />
    <glyph glyph-name="B" unicode="B" horiz-adv-x="698" 
d="M30 0v147h56v438h-56v151h377c171 0 237 -38 237 -183c0 -109 -32 -154 -114 -170c84 -13 134 -49 134 -176c0 -146 -56 -207 -237 -207h-397zM277 431h121c36 0 59 22 59 85c0 61 -22 80 -59 80h-121v-165zM277 136h137c36 0 59 24 59 89s-24 93 -59 93h-137v-182z" />
    <glyph glyph-name="C" unicode="C" horiz-adv-x="654" 
d="M345 -9c-228 0 -315 63 -315 377s91 377 317 377c109 0 236 -16 267 -24v-258h-179v129c-17 2 -59 4 -91 4c-96 0 -113 -36 -113 -190v-74c0 -152 18 -196 115 -196c29 0 71 1 89 5v146h179v-272c-30 -8 -160 -24 -269 -24z" />
    <glyph glyph-name="D" unicode="D" horiz-adv-x="706" 
d="M30 736v-147h56v-439h-56v-151h330c242 0 316 42 316 367s-77 369 -316 369c-200 0 -313 1 -330 1zM280 600h83c98 0 115 -49 115 -203v-60c0 -154 -17 -198 -115 -198h-83v461z" />
    <glyph glyph-name="E" unicode="E" horiz-adv-x="678" 
d="M30 0v147h56v438h-56v151h608v-273h-180v132h-178v-157h119v-137h-119v-164h178v150h180v-287h-608z" />
    <glyph glyph-name="F" unicode="F" horiz-adv-x="663" 
d="M30 0v147h56v438h-56v151h608v-273h-180v130h-178v-161h132v-144h-132v-141h80v-147h-330z" />
    <glyph glyph-name="G" unicode="G" horiz-adv-x="679" 
d="M345 -9c-228 0 -315 63 -315 377s91 377 317 377c109 0 236 -16 267 -24v-258h-177v129c-17 2 -61 4 -93 4c-96 0 -114 -36 -114 -190v-77c0 -152 14 -195 120 -195c29 0 79 2 97 6v99h-77v139h286v-139h-44v-224c-42 -10 -158 -24 -267 -24z" />
    <glyph glyph-name="H" unicode="H" horiz-adv-x="766" 
d="M30 0v147h56v438h-56v151h312v-151h-62v-142h206v142h-62v151h312v-151h-56v-438h56v-147h-312v147h62v159h-206v-159h62v-147h-312z" />
    <glyph glyph-name="I" unicode="I" horiz-adv-x="390" 
d="M30 736v-147h68v-438h-68v-151h330v151h-68v438h68v147h-330z" />
    <glyph glyph-name="J" unicode="J" horiz-adv-x="626" 
d="M271 -9c-86 0 -211 15 -246 24v272h182v-145c13 -2 49 -4 61 -4c60 0 81 18 81 122v325h-80v151h327v-151h-53v-319c0 -231 -63 -275 -272 -275z" />
    <glyph glyph-name="K" unicode="K" horiz-adv-x="744" 
d="M277 394c25 30 54 60 86 92l106 108h-62v142h292v-151h-58s-164 -164 -165 -164l187 -274h56v-147h-314v138h47l-111 161c1 0 -36 -36 -64 -63v-98h46v-138h-293v147h56v438h-56v151h295v-142h-48v-200z" />
    <glyph glyph-name="L" unicode="L" horiz-adv-x="663" 
d="M30 0v147h56v438h-56v151h335v-151h-85v-445h176v148h182v-288h-608z" />
    <glyph glyph-name="M" unicode="M" horiz-adv-x="911" 
d="M30 0v147h56v438h-56v151h328l102 -376l99 376h322v-151h-56v-438h56v-147h-308v147h64v237c0 70 3 150 4 197c-11 -45 -34 -126 -53 -197l-66 -252h-172l-67 252c-20 74 -39 152 -50 197c1 -49 2 -127 2 -197v-237h64v-147h-269z" />
    <glyph glyph-name="N" unicode="N" horiz-adv-x="760" 
d="M30 0v147h56v438h-56v151h277l143 -273c46 -87 73 -138 80 -158c-4 34 -5 101 -5 167v113h-67v151h272v-151h-53v-585h-179l-176 340c-50 97 -79 146 -88 175c3 -36 4 -119 4 -177v-191h71v-147h-279z" />
    <glyph glyph-name="O" unicode="O" horiz-adv-x="706" 
d="M353 748c-222 0 -323 -57 -323 -380c0 -322 103 -380 325 -380s321 56 321 378c0 323 -101 382 -323 382zM355 605c98 0 123 -35 123 -196v-76c0 -161 -27 -198 -125 -198s-125 34 -125 195v77c0 160 29 198 127 198z" />
    <glyph glyph-name="P" unicode="P" horiz-adv-x="680" 
d="M30 0v147h56v438h-56v151h384c155 0 241 -29 241 -250c0 -222 -88 -254 -243 -254h-134v-90h84v-142h-332zM278 371h123c40 0 62 26 62 113c0 86 -24 111 -64 111h-121v-224z" />
    <glyph glyph-name="Q" unicode="Q" horiz-adv-x="706" 
d="M586 51l65 -125l-191 -92s-84 162 -85 162h-22c-222 0 -323 49 -323 372c0 322 103 380 325 380s321 -56 321 -378c0 -173 -29 -268 -90 -319zM355 126c98 0 123 35 123 196v81c0 161 -27 198 -125 198s-125 -34 -125 -195v-82c0 -160 29 -198 127 -198z" />
    <glyph glyph-name="R" unicode="R" horiz-adv-x="721" 
d="M30 0v147h56v438h-56v151h383c155 0 240 -29 240 -228c0 -104 -24 -179 -112 -208l99 -153h56v-147h-265v78v49l-92 147h-62v-136h72v-138h-319zM277 395h122c40 0 63 23 63 105c0 81 -25 95 -65 95h-120v-200z" />
    <glyph glyph-name="S" unicode="S" horiz-adv-x="662" 
d="M322 -10c-139 0 -251 15 -282 21v238h180v-123c19 -5 71 -7 104 -7c100 0 115 15 115 82c0 60 -22 68 -135 88c-218 41 -267 67 -267 250c0 162 80 207 288 207c102 0 245 -14 281 -25v-215h-179v102c-14 3 -73 5 -104 5c-70 0 -92 -10 -92 -70c0 -56 21 -68 128 -87
c223 -39 277 -68 277 -245c0 -171 -63 -221 -314 -221z" />
    <glyph glyph-name="T" unicode="T" horiz-adv-x="737" 
d="M202 0v147h70v459h-81v-142h-166v272h687v-273h-166v142h-81v-459h69v-146h-332z" />
    <glyph glyph-name="U" unicode="U" horiz-adv-x="765" 
d="M386 -10c-225 0 -303 49 -303 268v327h-53v151h320v-151h-73v-331c0 -95 34 -109 111 -109s110 10 110 107v333h-67v151h304v-151h-53v-325c0 -216 -70 -270 -296 -270z" />
    <glyph glyph-name="V" unicode="V" horiz-adv-x="776" 
d="M286 736l-207 -588h-54v-151h346v142h-93l74 229c23 72 43 132 57 179c14 -46 32 -108 57 -178l75 -230h-88v-142h298v151h-54l-204 588h-207z" />
    <glyph glyph-name="W" unicode="W" horiz-adv-x="969" 
d="M206 -3l-128 588h-53v151h327v-142h-76l28 -166c14 -74 27 -147 33 -207c8 58 25 133 42 206l46 197h165l47 -197c17 -73 34 -153 41 -206c7 52 19 133 33 206l29 167h-77v142h281v-151h-53l-123 -588h-203l-48 226c-14 64 -28 141 -32 174c-4 -32 -18 -109 -32 -173
l-50 -227h-197z" />
    <glyph glyph-name="X" unicode="X" horiz-adv-x="752" 
d="M243 369l-165 216h-43v151h332v-137h-72l109 -145l105 145h-70v137h278v-151h-51l-164 -213l171 -225h54v-147h-348v133h76l-114 152c1 0 -110 -152 -110 -152h76v-133h-282v147h49z" />
    <glyph glyph-name="Y" unicode="Y" horiz-adv-x="752" 
d="M199 0v147h77v122l-196 316h-55v151h334v-142h-76s98 -166 115 -197c18 33 119 197 119 197h-76v142h286v-151h-55l-202 -314v-124h78v-147h-349z" />
    <glyph glyph-name="Z" unicode="Z" horiz-adv-x="654" 
d="M30 0v162l382 446h-205v-121h-172v249h584v-167l-381 -445h213v144h173v-268h-594z" />
    <glyph glyph-name="bracketleft" unicode="[" horiz-adv-x="384" 
d="M67 -179v937h287v-147h-117v-649h117v-141h-287z" />
    <glyph glyph-name="backslash" unicode="\" horiz-adv-x="461" 
d="M276 -45l-246 771l155 50l246 -770z" />
    <glyph glyph-name="bracketright" unicode="]" horiz-adv-x="383" 
d="M30 -167v141h127v642h-127v147h286v-930h-286z" />
    <glyph glyph-name="asciicircum" unicode="^" horiz-adv-x="359" 
d="M34 433v-141h291v141h-291z" />
    <glyph glyph-name="underscore" unicode="_" horiz-adv-x="573" 
d="M-35 -190v141h643v-141h-643z" />
    <glyph glyph-name="grave" unicode="`" horiz-adv-x="485" 
d="M350 516l-271 99l80 152l241 -156z" />
    <glyph glyph-name="a" unicode="a" horiz-adv-x="554" 
d="M139 -7c-70 0 -116 56 -116 171c0 57 9 95 43 115c37 21 112 27 249 27v55c0 20 -9 26 -41 26c-11 0 -38 0 -51 -1v-44h-173v140c54 7 140 14 224 14c179 0 222 -45 222 -145v-211h38v-140h-195l-15 46c-50 -30 -119 -53 -185 -53zM245 111c24 0 53 4 70 8v101
c-49 0 -72 -2 -91 -8c-15 -5 -18 -22 -18 -46c0 -38 11 -55 39 -55z" />
    <glyph glyph-name="b" unicode="b" horiz-adv-x="591" 
d="M426 -7c-61 0 -136 17 -181 38l-20 -31h-195v140h44v473h-44v145h224v-312c46 25 122 48 174 48c95 0 134 -60 134 -249c0 -190 -41 -252 -136 -252zM332 124c33 0 46 27 46 119c0 93 -11 111 -47 111c-37 0 -56 -4 -77 -8v-217c19 -3 40 -5 78 -5z" />
    <glyph glyph-name="c" unicode="c" horiz-adv-x="525" 
d="M280 496c-181 0 -253 -31 -253 -250s74 -251 255 -251c111 0 175 9 213 18v191h-173v-90c-9 -2 -23 -3 -42 -3c-62 0 -69 19 -69 134c0 114 8 138 70 138c12 0 32 0 41 -2v-95h173v193c-42 8 -112 17 -215 17z" />
    <glyph glyph-name="d" unicode="d" horiz-adv-x="583" 
d="M163 -9c-95 0 -134 61 -134 250c0 190 41 253 136 253c59 0 130 -17 172 -34v153h-55v145h235v-618h46v-140h-202l-15 44c-48 -27 -126 -53 -183 -53zM260 133c37 0 56 3 77 8v217c-19 2 -40 4 -78 4c-33 0 -46 -27 -46 -119c0 -93 11 -110 47 -110z" />
    <glyph glyph-name="e" unicode="e" horiz-adv-x="535" 
d="M280 -6c-182 0 -253 33 -253 251c0 221 78 253 247 253c181 0 230 -35 230 -222v-62h-295c1 -95 13 -115 72 -115c18 0 39 2 44 3v50h173v-141c-29 -6 -108 -17 -218 -17zM209 303h123c-2 75 -13 85 -61 85c-44 0 -56 -9 -62 -85z" />
    <glyph glyph-name="f" unicode="f" horiz-adv-x="380" 
d="M30 0v140h59v202h-59v143h59v75c0 128 22 158 239 200l40 -147c-94 -23 -101 -31 -101 -77v-51h93v-143h-93v-202h93v-140h-330z" />
    <glyph glyph-name="g" unicode="g" horiz-adv-x="547" 
d="M33 -182v176h183v-56c134 -1 139 11 139 47c0 35 -7 41 -274 46l20 135c-72 20 -88 55 -88 152c0 142 31 176 239 176c32 0 66 -3 92 -7l27 66l156 -63l-41 -99c3 -14 5 -52 5 -72c0 -137 -27 -166 -235 -166h-12l-4 -34c238 -8 291 -21 291 -142
c0 -138 -38 -158 -472 -159h-26zM252 238c51 0 63 9 63 77c0 24 -1 50 -3 68c-16 1 -34 2 -60 2c-51 0 -63 -10 -63 -70c0 -68 12 -77 63 -77z" />
    <glyph glyph-name="h" unicode="h" horiz-adv-x="611" 
d="M30 0v140h44v473h-44v145h224v-311c42 23 115 47 173 47c80 0 120 -33 120 -104v-250h44v-140h-227v97v44v185c0 21 -11 26 -43 26c-23 0 -51 -4 -67 -8v-204h51v-140h-275z" />
    <glyph glyph-name="i" unicode="i" horiz-adv-x="342" 
d="M80 183v-183h193v183h-193zM30 711v-140h60v-202h-60v-143h243v345h49v140h-292z" />
    <glyph glyph-name="j" unicode="j" horiz-adv-x="317" 
d="M81 528v183h193v-183h-193zM30 -181l-38 143c87 21 99 29 99 76v304h-64v143h247v-476c0 -114 -32 -149 -244 -190z" />
    <glyph glyph-name="k" unicode="k" horiz-adv-x="612" 
d="M30 0v140h44v473h-44v145h224v-483l125 96h-56v114h244v-142h-77l-56 -42l115 -161h43v-140h-230v115l-65 86l-43 -30v-41h49v-130h-273z" />
    <glyph glyph-name="l" unicode="l" horiz-adv-x="356" 
d="M30 0v140h60v473h-60v145h243v-618h63v-140h-306z" />
    <glyph glyph-name="m" unicode="m" horiz-adv-x="889" 
d="M30 0v140h44v202h-44v143h200l15 -44c50 27 114 53 184 53c56 0 88 -20 101 -52c54 29 121 52 182 52c80 0 113 -33 113 -109v-245h44v-140h-224v87v50v189c0 21 -9 26 -41 26c-25 0 -51 -5 -65 -8v-204h42v-140h-221v92v44v190c0 21 -9 26 -41 26c-25 0 -51 -5 -65 -8
v-204h47v-140h-271z" />
    <glyph glyph-name="n" unicode="n" horiz-adv-x="614" 
d="M30 0v140h44v202h-44v143h202l15 -44c49 29 131 53 183 53c81 0 120 -33 120 -104v-250h44v-140h-227v93v45v188c0 21 -11 26 -43 26c-28 0 -55 -5 -67 -8v-204h51v-140h-278z" />
    <glyph glyph-name="o" unicode="o" horiz-adv-x="556" 
d="M277 -7c-183 0 -250 37 -250 252s69 253 252 253s250 -36 250 -251s-69 -254 -252 -254zM279 108c58 0 66 24 66 137s-9 134 -67 134c-59 0 -67 -20 -67 -133s9 -138 68 -138z" />
    <glyph glyph-name="p" unicode="p" horiz-adv-x="582" 
d="M20 -179v137h44v384h-44v143h200l15 -44c49 27 127 53 184 53c95 0 134 -60 134 -249c0 -190 -41 -252 -136 -252c-59 0 -130 16 -172 34v-69h56v-137h-281zM323 124c33 0 46 27 46 119c0 93 -11 111 -47 111c-37 0 -56 -4 -77 -8v-217c19 -3 40 -5 78 -5z" />
    <glyph glyph-name="q" unicode="q" horiz-adv-x="581" 
d="M286 -179v137h51v81c-46 -24 -118 -48 -174 -48c-95 0 -134 61 -134 250c0 190 41 253 136 253c61 0 139 -19 183 -40l14 31h199v-143h-43v-384h43v-137h-275zM260 133c37 0 56 3 77 8v217c-19 2 -40 4 -78 4c-33 0 -46 -27 -46 -119c0 -93 11 -110 47 -110z" />
    <glyph glyph-name="r" unicode="r" horiz-adv-x="503" 
d="M30 0v140h44v202h-44v143h202l16 -54c69 37 151 65 235 68v-212h-169v54c-16 -1 -45 -4 -57 -7v-194h55v-140h-282z" />
    <glyph glyph-name="s" unicode="s" horiz-adv-x="512" 
d="M255 497c-116 0 -201 -11 -225 -16v-128h171v45c7 1 34 2 54 2c56 0 66 -3 66 -35c0 -34 -7 -38 -111 -52c-151 -18 -184 -49 -184 -161c0 -119 63 -156 219 -156c112 0 189 11 227 22v133h-167v-51c-7 -2 -38 -3 -54 -3c-44 0 -55 8 -55 35c0 30 11 36 108 47
c165 18 188 45 188 161c0 120 -52 157 -237 157z" />
    <glyph glyph-name="t" unicode="t" horiz-adv-x="380" 
d="M214 -5c-113 0 -151 31 -151 143v204h-43v143h43v124l183 20v-144h105v-143h-105v-163c0 -39 12 -48 44 -48c12 0 43 2 66 5l8 -131c-23 -4 -98 -10 -150 -10z" />
    <glyph glyph-name="u" unicode="u" horiz-adv-x="607" 
d="M184 -9c-80 0 -120 33 -120 104v247h-44v143h227v-326c0 -21 11 -26 43 -26c25 0 54 5 68 8v201h-52v143h235v-345h46v-140h-204l-15 44c-42 -25 -122 -53 -184 -53z" />
    <glyph glyph-name="v" unicode="v" horiz-adv-x="603" 
d="M208 -2l-144 344h-44v143h278v-133h-50l34 -92c15 -39 32 -84 42 -115c10 30 26 76 41 115l35 92h-43v133h226v-143h-38l-139 -344h-198z" />
    <glyph glyph-name="w" unicode="w" horiz-adv-x="810" 
d="M160 -2l-100 344h-40v143h267v-133h-50l17 -78c10 -43 17 -78 22 -109c7 32 16 68 29 109l52 160h141l52 -160c14 -42 23 -76 31 -109c5 33 12 66 21 109l17 78h-50v133h221v-143h-39l-100 -344h-174l-46 144c-6 18 -23 70 -25 85c-2 -15 -18 -66 -25 -86l-47 -143h-174z
" />
    <glyph glyph-name="x" unicode="x" horiz-adv-x="590" 
d="M182 234l-105 108h-42v143h261v-114h-42s71 -67 70 -67l70 67h-39v114h210v-143h-50l-95 -89c0 1 110 -113 110 -113h40v-140h-257v101h46l-80 81l-77 -81h52v-101h-224v140h53z" />
    <glyph glyph-name="y" unicode="y" horiz-adv-x="620" 
d="M121 485v-134h94l25 -48l-181 -339h-39v-143h287v133h-59l44 101c20 41 35 80 44 109c9 -28 24 -67 43 -109l40 -101h-53v-133h234v143h-34l-192 387h60v134h-313z" />
    <glyph glyph-name="z" unicode="z" horiz-adv-x="530" 
d="M30 -2v136l294 243h-125v-37h-164v143h470v-138l-288 -245h128v50h165v-152h-480z" />
    <glyph glyph-name="braceleft" unicode="{" horiz-adv-x="481" 
d="M451 -179c-288 0 -342 88 -348 398h-90v146h90c6 303 63 393 348 393v-147c-177 0 -185 -53 -185 -324c0 -269 8 -325 185 -325v-141z" />
    <glyph glyph-name="bar" unicode="|" horiz-adv-x="427" 
d="M133 -68v816h161v-816h-161z" />
    <glyph glyph-name="braceright" unicode="}" horiz-adv-x="481" 
d="M30 -179v141c177 0 185 56 185 325c0 271 -8 324 -185 324v147c285 0 342 -90 348 -393h90v-146h-90c-6 -310 -60 -398 -348 -398z" />
    <glyph glyph-name="asciitilde" unicode="~" horiz-adv-x="544" 
d="M130 518l-84 103c5 4 33 28 41 34c38 31 84 63 117 63c25 0 52 -12 76 -24c26 -12 48 -24 62 -24c11 0 26 10 42 23l30 26l84 -103c-6 -5 -28 -24 -36 -30c-40 -33 -88 -67 -122 -67c-27 0 -58 15 -85 28c-22 11 -41 20 -53 20c-11 0 -25 -10 -41 -23
c-5 -3 -26 -22 -31 -26z" />
    <glyph glyph-name="Adieresis" unicode="&#xc4;" horiz-adv-x="776" 
d="M576 576v160h141v-160h-141zM50 576v160h141v-160h-141zM260 222l-27 -84h90v-138h-298v147h53l205 594h207l206 -594h55v-147h-346v138h94l-27 84h-212zM436 335l-20 64c-15 49 -40 128 -49 163c-7 -35 -35 -117 -50 -163l-21 -64h140z" />
    <glyph glyph-name="Aring" unicode="&#xc5;" horiz-adv-x="776" 
d="M260 222l-27 -84h90v-138h-298v147h53l192 558c-24 17 -36 46 -36 94c0 97 48 122 154 122s155 -25 155 -122c0 -49 -13 -79 -40 -96l193 -556h55v-147h-346v138h94l-27 84h-212zM388 743c43 0 55 7 55 56c0 50 -12 59 -55 59s-54 -9 -54 -59c0 -49 11 -56 54 -56z
M436 335l-20 64c-15 49 -40 128 -49 163c-7 -35 -35 -117 -50 -163l-21 -64h140z" />
    <glyph glyph-name="Ccedilla" unicode="&#xc7;" horiz-adv-x="654" 
d="M302 -8c-196 8 -272 83 -272 376c0 314 91 377 317 377c109 0 236 -16 267 -24v-258h-179v129c-17 2 -59 4 -91 4c-96 0 -113 -36 -113 -190v-74c0 -152 18 -196 115 -196c29 0 71 1 89 5v146h179v-272c-24 -6 -109 -17 -197 -22l18 -140c-25 -21 -94 -55 -205 -65
l-18 119c40 5 84 17 97 24z" />
    <glyph glyph-name="Eacute" unicode="&#xc9;" horiz-adv-x="678" 
d="M30 0v147h56v438h-56v151h608v-273h-180v132h-178v-157h119v-137h-119v-164h178v150h180v-287h-608zM239 763l-50 95l242 156l79 -152z" />
    <glyph glyph-name="Ntilde" unicode="&#xd1;" horiz-adv-x="760" 
d="M30 0v147h56v438h-56v151h277l143 -273c46 -87 73 -138 80 -158c-4 34 -5 101 -5 167v113h-67v151h272v-151h-53v-585h-179l-176 340c-50 97 -79 146 -88 175c3 -36 4 -119 4 -177v-191h71v-147h-279zM260 766l-84 103c5 4 33 28 41 34c38 31 84 63 117 63
c25 0 52 -12 76 -24c26 -12 48 -24 62 -24c11 0 26 10 42 23l30 26l84 -103c-6 -5 -28 -24 -36 -30c-40 -33 -88 -67 -122 -67c-27 0 -58 15 -85 28c-22 11 -41 20 -53 20c-11 0 -25 -10 -41 -23c-5 -3 -26 -22 -31 -26z" />
    <glyph glyph-name="Odieresis" unicode="&#xd6;" horiz-adv-x="706" 
d="M353 -12c-222 0 -323 57 -323 380c0 322 103 380 325 380s321 -56 321 -378c0 -323 -101 -382 -323 -382zM355 131c98 0 123 35 123 196v76c0 161 -27 198 -125 198s-125 -34 -125 -195v-77c0 -160 29 -198 127 -198zM381 774v160h171v-160h-171zM166 774v160h171v-160
h-171z" />
    <glyph glyph-name="Udieresis" unicode="&#xdc;" horiz-adv-x="765" 
d="M386 -10c-225 0 -303 49 -303 268v327h-53v151h320v-151h-73v-331c0 -95 34 -109 111 -109s110 10 110 107v333h-67v151h304v-151h-53v-325c0 -216 -70 -270 -296 -270zM411 774v160h171v-160h-171zM196 774v160h171v-160h-171z" />
    <glyph glyph-name="aacute" unicode="&#xe1;" horiz-adv-x="554" 
d="M139 -7c-70 0 -116 56 -116 171c0 57 9 95 43 115c37 21 112 27 249 27v55c0 20 -9 26 -41 26c-11 0 -38 0 -51 -1v-44h-173v140c54 7 140 14 224 14c179 0 222 -45 222 -145v-211h38v-140h-195l-15 46c-50 -30 -119 -53 -185 -53zM245 111c24 0 53 4 70 8v101
c-49 0 -72 -2 -91 -8c-15 -5 -18 -22 -18 -46c0 -38 11 -55 39 -55zM169 515l-50 95l242 156l79 -152z" />
    <glyph glyph-name="agrave" unicode="&#xe0;" horiz-adv-x="554" 
d="M139 -7c-70 0 -116 56 -116 171c0 57 9 95 43 115c37 21 112 27 249 27v55c0 20 -9 26 -41 26c-11 0 -38 0 -51 -1v-44h-173v140c54 7 140 14 224 14c179 0 222 -45 222 -145v-211h38v-140h-195l-15 46c-50 -30 -119 -53 -185 -53zM245 111c24 0 53 4 70 8v101
c-49 0 -72 -2 -91 -8c-15 -5 -18 -22 -18 -46c0 -38 11 -55 39 -55zM384 516l-271 99l80 152l241 -156z" />
    <glyph glyph-name="acircumflex" unicode="&#xe2;" horiz-adv-x="554" 
d="M139 -7c-70 0 -116 56 -116 171c0 57 9 95 43 115c37 21 112 27 249 27v55c0 20 -9 26 -41 26c-11 0 -38 0 -51 -1v-44h-173v140c54 7 140 14 224 14c179 0 222 -45 222 -145v-211h38v-140h-195l-15 46c-50 -30 -119 -53 -185 -53zM245 111c24 0 53 4 70 8v101
c-49 0 -72 -2 -91 -8c-15 -5 -18 -22 -18 -46c0 -38 11 -55 39 -55zM138 514l-52 89l195 135l195 -134l-50 -90l-145 63z" />
    <glyph glyph-name="adieresis" unicode="&#xe4;" horiz-adv-x="554" 
d="M139 -7c-70 0 -116 56 -116 171c0 57 9 95 43 115c37 21 112 27 249 27v55c0 20 -9 26 -41 26c-11 0 -38 0 -51 -1v-44h-173v140c54 7 140 14 224 14c179 0 222 -45 222 -145v-211h38v-140h-195l-15 46c-50 -30 -119 -53 -185 -53zM245 111c24 0 53 4 70 8v101
c-49 0 -72 -2 -91 -8c-15 -5 -18 -22 -18 -46c0 -38 11 -55 39 -55zM303 526v160h171v-160h-171zM88 526v160h171v-160h-171z" />
    <glyph glyph-name="atilde" unicode="&#xe3;" horiz-adv-x="554" 
d="M139 -7c-70 0 -116 56 -116 171c0 57 9 95 43 115c37 21 112 27 249 27v55c0 20 -9 26 -41 26c-11 0 -38 0 -51 -1v-44h-173v140c54 7 140 14 224 14c179 0 222 -45 222 -145v-211h38v-140h-195l-15 46c-50 -30 -119 -53 -185 -53zM245 111c24 0 53 4 70 8v101
c-49 0 -72 -2 -91 -8c-15 -5 -18 -22 -18 -46c0 -38 11 -55 39 -55zM154 518l-84 103c5 4 33 28 41 34c38 31 84 63 117 63c25 0 52 -12 76 -24c26 -12 48 -24 62 -24c11 0 26 10 42 23l30 26l84 -103c-6 -5 -28 -24 -36 -30c-40 -33 -88 -67 -122 -67c-27 0 -58 15 -85 28
c-22 11 -41 20 -53 20c-11 0 -25 -10 -41 -23c-5 -3 -26 -22 -31 -26z" />
    <glyph glyph-name="aring" unicode="&#xe5;" horiz-adv-x="554" 
d="M139 -7c-70 0 -116 56 -116 171c0 57 9 95 43 115c37 21 112 27 249 27v55c0 20 -9 26 -41 26c-11 0 -38 0 -51 -1v-44h-173v140c54 7 140 14 224 14c179 0 222 -45 222 -145v-211h38v-140h-195l-15 46c-50 -30 -119 -53 -185 -53zM245 111c24 0 53 4 70 8v101
c-49 0 -72 -2 -91 -8c-15 -5 -18 -22 -18 -46c0 -38 11 -55 39 -55zM287 523c-106 0 -154 22 -154 118c0 97 48 122 154 122s155 -25 155 -122c0 -96 -51 -118 -155 -118zM287 585c43 0 55 7 55 56c0 50 -12 59 -55 59s-54 -9 -54 -59c0 -49 11 -56 54 -56z" />
    <glyph glyph-name="ccedilla" unicode="&#xe7;" horiz-adv-x="525" 
d="M235 -4c-148 6 -208 49 -208 249c0 219 74 251 255 251c111 0 175 -9 213 -18v-191h-173v90c-9 2 -23 3 -42 3c-62 0 -69 -19 -69 -134c0 -114 8 -138 70 -138c12 0 32 0 41 2v95h173v-193c-32 -6 -79 -13 -144 -15l18 -144c-25 -21 -94 -55 -205 -65l-18 119
c40 5 84 17 97 24z" />
    <glyph glyph-name="eacute" unicode="&#xe9;" horiz-adv-x="535" 
d="M280 -6c-182 0 -253 33 -253 251c0 221 78 253 247 253c181 0 230 -35 230 -222v-62h-295c1 -95 13 -115 72 -115c18 0 39 2 44 3v50h173v-141c-29 -6 -108 -17 -218 -17zM209 303h123c-2 75 -13 85 -61 85c-44 0 -56 -9 -62 -85zM163 515l-50 95l242 156l79 -152z" />
    <glyph glyph-name="egrave" unicode="&#xe8;" horiz-adv-x="535" 
d="M280 -6c-182 0 -253 33 -253 251c0 221 78 253 247 253c181 0 230 -35 230 -222v-62h-295c1 -95 13 -115 72 -115c18 0 39 2 44 3v50h173v-141c-29 -6 -108 -17 -218 -17zM209 303h123c-2 75 -13 85 -61 85c-44 0 -56 -9 -62 -85zM378 516l-271 99l80 152l241 -156z" />
    <glyph glyph-name="ecircumflex" unicode="&#xea;" horiz-adv-x="535" 
d="M280 -6c-182 0 -253 33 -253 251c0 221 78 253 247 253c181 0 230 -35 230 -222v-62h-295c1 -95 13 -115 72 -115c18 0 39 2 44 3v50h173v-141c-29 -6 -108 -17 -218 -17zM209 303h123c-2 75 -13 85 -61 85c-44 0 -56 -9 -62 -85zM142 514l-52 89l195 135l195 -134
l-50 -90l-145 63z" />
    <glyph glyph-name="edieresis" unicode="&#xeb;" horiz-adv-x="535" 
d="M280 -6c-182 0 -253 33 -253 251c0 221 78 253 247 253c181 0 230 -35 230 -222v-62h-295c1 -95 13 -115 72 -115c18 0 39 2 44 3v50h173v-141c-29 -6 -108 -17 -218 -17zM209 303h123c-2 75 -13 85 -61 85c-44 0 -56 -9 -62 -85zM297 526v160h171v-160h-171zM82 526v160
h171v-160h-171z" />
    <glyph glyph-name="iacute" unicode="&#xed;" horiz-adv-x="342" 
d="M30 0v140h60v202h-60v143h243v-345h49v-140h-292zM63 515l-50 95l242 156l79 -152z" />
    <glyph glyph-name="igrave" unicode="&#xec;" horiz-adv-x="342" 
d="M30 0v140h60v202h-60v143h243v-345h49v-140h-292zM278 516l-271 99l80 152l241 -156z" />
    <glyph glyph-name="icircumflex" unicode="&#xee;" horiz-adv-x="342" 
d="M30 0v140h60v202h-60v143h243v-345h49v-140h-292zM32 514l-52 89l195 135l195 -134l-50 -90l-145 63z" />
    <glyph glyph-name="idieresis" unicode="&#xef;" horiz-adv-x="342" 
d="M30 0v140h60v202h-60v143h243v-345h49v-140h-292zM197 526v160h171v-160h-171zM-18 526v160h171v-160h-171z" />
    <glyph glyph-name="ntilde" unicode="&#xf1;" horiz-adv-x="614" 
d="M30 0v140h44v202h-44v143h202l15 -44c49 29 131 53 183 53c81 0 120 -33 120 -104v-250h44v-140h-227v93v45v188c0 21 -11 26 -43 26c-28 0 -55 -5 -67 -8v-204h51v-140h-278zM185 518l-84 103c5 4 33 28 41 34c38 31 84 63 117 63c25 0 52 -12 76 -24
c26 -12 48 -24 62 -24c11 0 26 10 42 23l30 26l84 -103c-6 -5 -28 -24 -36 -30c-40 -33 -88 -67 -122 -67c-27 0 -58 15 -85 28c-22 11 -41 20 -53 20c-11 0 -25 -10 -41 -23c-5 -3 -26 -22 -31 -26z" />
    <glyph glyph-name="oacute" unicode="&#xf3;" horiz-adv-x="556" 
d="M277 -7c-183 0 -250 37 -250 252s69 253 252 253s250 -36 250 -251s-69 -254 -252 -254zM279 108c58 0 66 24 66 137s-9 134 -67 134c-59 0 -67 -20 -67 -133s9 -138 68 -138zM173 515l-50 95l242 156l79 -152z" />
    <glyph glyph-name="ograve" unicode="&#xf2;" horiz-adv-x="556" 
d="M277 -7c-183 0 -250 37 -250 252s69 253 252 253s250 -36 250 -251s-69 -254 -252 -254zM279 108c58 0 66 24 66 137s-9 134 -67 134c-59 0 -67 -20 -67 -133s9 -138 68 -138zM388 516l-271 99l80 152l241 -156z" />
    <glyph glyph-name="ocircumflex" unicode="&#xf4;" horiz-adv-x="556" 
d="M277 -7c-183 0 -250 37 -250 252s69 253 252 253s250 -36 250 -251s-69 -254 -252 -254zM279 108c58 0 66 24 66 137s-9 134 -67 134c-59 0 -67 -20 -67 -133s9 -138 68 -138zM142 514l-52 89l195 135l195 -134l-50 -90l-145 63z" />
    <glyph glyph-name="odieresis" unicode="&#xf6;" horiz-adv-x="556" 
d="M277 -7c-183 0 -250 37 -250 252s69 253 252 253s250 -36 250 -251s-69 -254 -252 -254zM279 108c58 0 66 24 66 137s-9 134 -67 134c-59 0 -67 -20 -67 -133s9 -138 68 -138zM307 526v160h171v-160h-171zM92 526v160h171v-160h-171z" />
    <glyph glyph-name="otilde" unicode="&#xf5;" horiz-adv-x="556" 
d="M277 -7c-183 0 -250 37 -250 252s69 253 252 253s250 -36 250 -251s-69 -254 -252 -254zM279 108c58 0 66 24 66 137s-9 134 -67 134c-59 0 -67 -20 -67 -133s9 -138 68 -138zM146 518l-84 103c5 4 33 28 41 34c38 31 84 63 117 63c25 0 52 -12 76 -24
c26 -12 48 -24 62 -24c11 0 26 10 42 23l30 26l84 -103c-6 -5 -28 -24 -36 -30c-40 -33 -88 -67 -122 -67c-27 0 -58 15 -85 28c-22 11 -41 20 -53 20c-11 0 -25 -10 -41 -23c-5 -3 -26 -22 -31 -26z" />
    <glyph glyph-name="uacute" unicode="&#xfa;" horiz-adv-x="607" 
d="M184 -9c-80 0 -120 33 -120 104v247h-44v143h227v-326c0 -21 11 -26 43 -26c25 0 54 5 68 8v201h-52v143h235v-345h46v-140h-204l-15 44c-42 -25 -122 -53 -184 -53zM193 515l-50 95l242 156l79 -152z" />
    <glyph glyph-name="ugrave" unicode="&#xf9;" horiz-adv-x="607" 
d="M184 -9c-80 0 -120 33 -120 104v247h-44v143h227v-326c0 -21 11 -26 43 -26c25 0 54 5 68 8v201h-52v143h235v-345h46v-140h-204l-15 44c-42 -25 -122 -53 -184 -53zM408 516l-271 99l80 152l241 -156z" />
    <glyph glyph-name="ucircumflex" unicode="&#xfb;" horiz-adv-x="607" 
d="M184 -9c-80 0 -120 33 -120 104v247h-44v143h227v-326c0 -21 11 -26 43 -26c25 0 54 5 68 8v201h-52v143h235v-345h46v-140h-204l-15 44c-42 -25 -122 -53 -184 -53zM134 514l-52 89l195 135l195 -134l-50 -90l-145 63z" />
    <glyph glyph-name="udieresis" unicode="&#xfc;" horiz-adv-x="607" 
d="M184 -9c-80 0 -120 33 -120 104v247h-44v143h227v-326c0 -21 11 -26 43 -26c25 0 54 5 68 8v201h-52v143h235v-345h46v-140h-204l-15 44c-42 -25 -122 -53 -184 -53zM299 526v160h171v-160h-171zM84 526v160h171v-160h-171z" />
    <glyph glyph-name="dagger" unicode="&#x2020;" horiz-adv-x="538" 
d="M198 -135v513h-168v135h168v88h-69v135h280v-135h-68v-88h167v-135h-167v-513h-143z" />
    <glyph glyph-name="degree" unicode="&#xb0;" horiz-adv-x="475" 
d="M237 338c-145 0 -207 43 -207 204s63 206 209 206c145 0 206 -43 206 -204s-63 -206 -208 -206zM238 436c49 0 61 11 61 107c0 95 -13 105 -62 105s-61 -9 -61 -104c0 -96 13 -108 62 -108z" />
    <glyph glyph-name="cent" unicode="&#xa2;" horiz-adv-x="525" 
d="M200 0v131c-123 12 -173 63 -173 246c0 182 51 236 173 248v116h145v-114c73 -2 120 -9 150 -17v-191h-173v90c-9 2 -23 3 -42 3c-62 0 -69 -19 -69 -133c0 -115 8 -139 70 -139c12 0 32 0 41 2v100h173v-198c-32 -6 -81 -13 -150 -16v-128h-145z" />
    <glyph glyph-name="sterling" unicode="&#xa3;" horiz-adv-x="630" 
d="M30 0v138h109c-12 50 -25 109 -37 165h-72v134h46c-5 35 -11 75 -11 103c0 155 51 209 261 209c100 0 205 -10 264 -22v-209h-177v76c-16 2 -49 5 -82 5c-63 0 -74 -17 -74 -75c0 -24 4 -56 8 -87h156v-134h-131c11 -56 24 -114 36 -165h87v86h177v-224h-560z" />
    <glyph glyph-name="section" unicode="&#xa7;" horiz-adv-x="566" 
d="M96 461c-35 26 -43 65 -43 131c0 110 53 155 221 155c114 0 188 -11 226 -22v-131h-167v49c-8 2 -31 3 -48 3c-54 0 -63 -7 -63 -37c0 -34 8 -37 102 -44c167 -11 198 -41 198 -153c0 -47 -26 -97 -52 -132c35 -25 43 -64 43 -130c0 -110 -53 -155 -221 -155
c-114 0 -188 11 -226 22v131h167v-49c8 -2 31 -3 48 -3c54 0 63 7 63 37c0 34 -8 38 -102 44c-167 11 -198 41 -198 153c0 47 26 97 52 131zM339 317c12 22 19 46 19 65c0 30 -12 34 -82 39c-18 1 -34 3 -49 4c-12 -22 -19 -46 -19 -65c0 -30 12 -34 82 -39
c18 -1 34 -3 49 -4z" />
    <glyph glyph-name="bullet" unicode="&#x2022;" horiz-adv-x="497" 
d="M249 75c-138 0 -194 48 -194 211s54 209 192 209c139 0 195 -48 195 -211s-54 -209 -193 -209z" />
    <glyph glyph-name="paragraph" unicode="&#xb6;" horiz-adv-x="654" 
d="M86 0v147h81v124c-80 11 -146 54 -146 226c0 205 83 239 238 239h365v-151h-56v-438h56v-147h-239v265h-55v-265h-244zM268 388h117v203h-115c-41 0 -65 -22 -65 -101c0 -82 22 -102 63 -102z" />
    <glyph glyph-name="germandbls" unicode="&#xdf;" horiz-adv-x="670" 
d="M337 -6l-20 141c74 9 113 18 132 37c16 15 16 32 16 59c0 28 0 45 -14 59c-18 18 -54 27 -112 35v115c41 59 53 80 53 125c0 39 -17 43 -74 43c-31 0 -46 -6 -46 -43v-565h-242v140h59v203h-59v142h59v93c0 123 60 163 235 163c178 0 242 -33 242 -177
c0 -66 -23 -91 -95 -135c55 -8 108 -26 136 -59c24 -28 35 -71 35 -140c0 -80 -7 -131 -42 -161c-45 -38 -121 -56 -263 -75z" />
    <glyph glyph-name="registered" unicode="&#xae;" horiz-adv-x="803" 
d="M401 -12c-300 0 -371 79 -371 379s71 381 371 381c301 0 372 -81 372 -381s-71 -379 -372 -379zM401 73c213 0 270 22 270 295s-57 295 -270 295c-212 0 -269 -22 -269 -295s57 -295 269 -295zM208 150v99h29v236h-29v100h232c104 0 151 -26 151 -143
c0 -66 -18 -105 -67 -122l52 -71h29v-99h-164v51v35l-48 71h-25v-60h28v-97h-188zM368 379h47c29 0 38 8 38 57s-10 53 -35 53h-50v-110z" />
    <glyph glyph-name="copyright" unicode="&#xa9;" horiz-adv-x="803" 
d="M401 -12c-300 0 -371 79 -371 379s71 381 371 381c301 0 372 -81 372 -381s-71 -379 -372 -379zM401 73c213 0 270 22 270 295s-57 295 -270 295c-212 0 -269 -22 -269 -295s57 -295 269 -295zM405 137c-158 0 -206 36 -206 232c0 192 48 228 207 228
c67 0 145 -7 173 -13v-161h-137v71c-12 2 -21 3 -37 3c-54 0 -60 -13 -60 -109v-39c0 -95 7 -110 60 -110c14 0 24 0 37 3v75h137v-164c-30 -7 -106 -16 -174 -16z" />
    <glyph glyph-name="trademark" unicode="&#x2122;" horiz-adv-x="1052" 
d="M148 293v90h43v273h-47v-98h-114v178h441v-178h-113v97h-47v-272h42v-90h-205zM498 293v90h40v261h-40v92h209l41 -150c4 -12 12 -51 13 -60c2 9 11 49 15 60l39 150h207v-92h-40v-261h40v-90h-199v87h44v253c-1 -9 -14 -53 -17 -63l-48 -175h-107l-50 178
c-3 11 -15 52 -16 60v-253h44v-87h-175z" />
    <glyph glyph-name="acute" unicode="&#xb4;" horiz-adv-x="485" 
d="M135 515l-50 95l242 156l79 -152z" />
    <glyph glyph-name="dieresis" unicode="&#xa8;" horiz-adv-x="482" 
d="M263 526v160h171v-160h-171zM48 526v160h171v-160h-171z" />
    <glyph glyph-name="notequal" unicode="&#x2260;" horiz-adv-x="693" 
d="M30 0v140h59v202h-59v143h59v45c0 128 27 158 244 200l40 -147c-94 -23 -101 -31 -101 -77v-21h125v75c0 128 28 158 245 200l39 -147c-93 -23 -101 -31 -101 -77v-51h94v-143h-94v-202h94v-140h-277v102v37v204h-125v-203h66v-140h-308z" />
    <glyph glyph-name="AE" unicode="&#xc6;" horiz-adv-x="1047" 
d="M21 0v147h48l223 439h-69v150h784v-273h-179v132h-179v-157h120v-137h-120v-164h179v150h179v-287h-599v137h57v85h-185l-41 -84h85v-138h-303zM339 340h126v264z" />
    <glyph glyph-name="Oslash" unicode="&#xd8;" horiz-adv-x="706" 
d="M612 665c43 -57 64 -148 64 -295c0 -323 -101 -382 -323 -382c-47 0 -89 3 -126 10l-68 -118l-130 75l67 116c-45 56 -66 149 -66 297c0 322 103 380 325 380c47 0 89 -3 126 -10l68 118l130 -75zM219 258l196 341c-17 5 -37 7 -62 7c-106 0 -137 -34 -137 -200v-77
c0 -27 1 -51 3 -71zM487 475c0 0 -196 -341 -197 -341c18 -6 39 -8 65 -8c106 0 135 35 135 201v76c0 27 -1 51 -3 72z" />
    <glyph glyph-name="infinity" unicode="&#x221e;" horiz-adv-x="955" 
d="M30 0v140h59v202h-59v143h59v45c0 128 27 158 244 200l40 -147c-94 -23 -101 -31 -101 -77v-21h125v72c0 132 45 173 345 204l24 -150c-180 -28 -186 -37 -186 -78v-48h309v-345h46v-140h-229v100v38v205h-126v-203h67v-140h-250v101v35v207h-125v-203h66v-140h-308z" />
    <glyph glyph-name="plusminus" unicode="&#xb1;" horiz-adv-x="972" 
d="M30 0v140h59v202h-59v143h59v45c0 128 27 158 244 200l40 -147c-94 -23 -101 -31 -101 -77v-21h125v75c0 128 11 161 214 200l40 -147c-71 -17 -71 -31 -71 -77v-51h67v-143h-67v-202h67v-140h-250v129v11v203h-125v-203h66v-140h-308zM706 0v122v17v474h-30v145h213
v-618h63v-140h-246z" />
    <glyph glyph-name="lessequal" unicode="&#x2264;" horiz-adv-x="580" 
d="M163 -9c-95 0 -134 61 -134 250c0 190 41 253 136 253c61 0 135 -19 180 -40l13 31h202v-143h-44v-203h44v-139h-203l-15 43c-47 -27 -122 -52 -179 -52zM260 133c36 0 53 3 73 7v218c-18 2 -37 4 -74 4c-33 0 -46 -27 -46 -119c0 -93 11 -110 47 -110z" />
    <glyph glyph-name="greaterequal" unicode="&#x2265;" 
d="M19 0v63h93v48c0 167 71 208 174 214v75h-217v194h69v-131h148v70h-49v192h166v-192h-48v-70h143v131h69v-194h-212v-74c102 -6 173 -43 173 -213v-50h89v-63h-161v100c0 118 -22 152 -101 159v-110h-69v110c-81 -5 -102 -34 -102 -157v-102h-165z" />
    <glyph glyph-name="yen" unicode="&#xa5;" horiz-adv-x="747" 
d="M602 462h94v-108h-164l-28 -43h192v-107h-232v-52h84v-152h-349v152h83v52h-229v107h188l-27 43h-161v108h93l-74 118h-47v156h330v-147h-80l120 -215c26 50 125 215 125 215h-82v147h289v-156h-48z" />
    <glyph glyph-name="mu" unicode="&#x3bc;" horiz-adv-x="583" 
d="M303 -179c-112 0 -203 8 -241 13v143h175v-46c15 -2 42 -2 55 -2c35 0 45 21 45 76v49c-46 -24 -118 -48 -174 -48c-95 0 -134 60 -134 243c0 184 41 245 136 245c61 0 139 -19 183 -40l14 31h201v-143h-43v-314c0 -140 -30 -207 -217 -207zM260 142c37 0 56 4 77 8v208
c-19 2 -40 4 -78 4c-33 0 -46 -23 -46 -111c0 -89 11 -109 47 -109z" />
    <glyph glyph-name="partialdiff" unicode="&#x2202;" 
d="M27 0v63h93v48c0 167 71 208 174 214v75h-217v194h69v-131h148v70h-49v192h166v-192h-48v-70h143v131h69v-194h-212v-74c102 -6 173 -43 173 -213v-50h89v-63h-161v100c0 118 -22 152 -101 159v-110h-69v110c-81 -5 -102 -34 -102 -157v-102h-165z" />
    <glyph glyph-name="summation" unicode="&#x2211;" 
d="M27 0v63h93v48c0 167 71 208 174 214v75h-217v194h69v-131h148v70h-49v192h166v-192h-48v-70h143v131h69v-194h-212v-74c102 -6 173 -43 173 -213v-50h89v-63h-161v100c0 118 -22 152 -101 159v-110h-69v110c-81 -5 -102 -34 -102 -157v-102h-165z" />
    <glyph glyph-name="product" unicode="&#x220f;" 
d="M27 0v63h93v48c0 167 71 208 174 214v75h-217v194h69v-131h148v70h-49v192h166v-192h-48v-70h143v131h69v-194h-212v-74c102 -6 173 -43 173 -213v-50h89v-63h-161v100c0 118 -22 152 -101 159v-110h-69v110c-81 -5 -102 -34 -102 -157v-102h-165z" />
    <glyph glyph-name="pi" unicode="&#x3c0;" horiz-adv-x="803" 
d="M401 -12c-300 0 -371 79 -371 379s71 381 371 381c301 0 372 -81 372 -381s-71 -379 -372 -379zM401 73c213 0 270 22 270 295s-57 295 -270 295c-212 0 -269 -22 -269 -295s57 -295 269 -295zM219 145v102h30v245h-30v102h241c108 0 157 -26 157 -157
c0 -121 -51 -147 -157 -147h-75v-45h50v-100h-216zM385 372h52c33 0 39 12 39 64c0 53 -7 59 -35 59h-56v-123z" />
    <glyph glyph-name="integral" unicode="&#x222b;" 
d="M19 0v63h93v48c0 167 71 208 174 214v75h-217v194h69v-131h148v70h-49v192h166v-192h-48v-70h143v131h69v-194h-212v-74c102 -6 173 -43 173 -213v-50h89v-63h-161v100c0 118 -22 152 -101 159v-110h-69v110c-81 -5 -102 -34 -102 -157v-102h-165z" />
    <glyph glyph-name="ordfeminine" unicode="&#xaa;" horiz-adv-x="472" 
d="M123 345c-56 0 -93 47 -93 139c0 45 7 76 35 92c30 17 89 21 199 22v44c0 15 -7 20 -33 20c-9 0 -27 0 -37 -1v-37h-139v117c43 6 109 11 176 11c144 0 180 -38 180 -119v-167h31v-115h-159l-12 36c-43 -24 -101 -42 -148 -42zM50 198v105h361v-105h-361zM209 443
c20 0 41 3 55 6v79c-39 -1 -58 -3 -71 -6c-14 -5 -13 -16 -13 -36c0 -30 7 -43 29 -43z" />
    <glyph glyph-name="ordmasculine" unicode="&#xba;" horiz-adv-x="465" 
d="M232 338c-146 0 -202 32 -202 204s57 205 204 205c145 0 201 -31 201 -203s-57 -206 -203 -206zM54 198v105h357v-105h-357zM233 433c47 0 51 19 51 110c0 90 -5 107 -52 107s-51 -16 -51 -106c0 -91 5 -111 52 -111z" />
    <glyph glyph-name="Omega" unicode="&#x3a9;" 
d="M27 0v63h93v48c0 167 71 208 174 214v75h-217v194h69v-131h148v70h-49v192h166v-192h-48v-70h143v131h69v-194h-212v-74c102 -6 173 -43 173 -213v-50h89v-63h-161v100c0 118 -22 152 -101 159v-110h-69v110c-81 -5 -102 -34 -102 -157v-102h-165z" />
    <glyph glyph-name="ae" unicode="&#xe6;" horiz-adv-x="815" 
d="M139 -7c-70 0 -116 56 -116 171c0 57 9 93 42 111c39 21 121 30 250 30v56c0 20 -7 26 -39 26c-11 0 -40 0 -53 -1v-44h-173v140c54 8 140 15 224 15c63 0 109 -12 142 -32c36 24 82 33 139 33c180 0 229 -35 229 -222v-62h-294c1 -95 12 -115 72 -115c17 0 39 2 43 3v65
h173v-156c-29 -6 -107 -17 -218 -17c-105 0 -167 11 -206 62c-78 -44 -155 -63 -215 -63zM490 303h122c-1 75 -12 85 -60 85c-44 0 -57 -9 -62 -85zM245 111c34 0 54 4 79 11c-6 26 -10 60 -11 98c-49 0 -70 -2 -89 -8c-15 -5 -18 -22 -18 -46c0 -38 11 -55 39 -55z" />
    <glyph glyph-name="oslash" unicode="&#xf8;" horiz-adv-x="556" 
d="M82 39c-38 37 -55 100 -55 206c0 215 69 253 252 253c24 0 47 -1 67 -2l66 114l112 -65l-52 -91c40 -36 57 -99 57 -207c0 -215 -69 -254 -252 -254c-25 0 -49 1 -70 3l-60 -105l-113 65zM202 221l94 162c-6 1 -11 1 -18 1c-65 0 -76 -20 -76 -138v-25zM354 275l-99 -171
c7 -1 15 -1 24 -1c64 0 75 24 75 142v30z" />
    <glyph glyph-name="questiondown" unicode="&#xbf;" horiz-adv-x="588" 
d="M436 736v-191h-211v191h211zM417 500v-126c-198 -98 -202 -95 -202 -187c0 -42 19 -59 95 -59c31 0 59 3 73 6v154h180v-273c-40 -10 -133 -27 -253 -27c-238 0 -285 42 -285 200c0 133 35 161 217 246v66h175z" />
    <glyph glyph-name="exclamdown" unicode="&#xa1;" horiz-adv-x="358" 
d="M74 545v191h211v-191h-211zM64 0l45 500h141l44 -500h-230z" />
    <glyph glyph-name="logicalnot" unicode="&#xac;" 
d="M27 0v63h93v48c0 167 71 208 174 214v75h-217v194h69v-131h148v70h-49v192h166v-192h-48v-70h143v131h69v-194h-212v-74c102 -6 173 -43 173 -213v-50h89v-63h-161v100c0 118 -22 152 -101 159v-110h-69v110c-81 -5 -102 -34 -102 -157v-102h-165z" />
    <glyph glyph-name="radical" unicode="&#x221a;" horiz-adv-x="701" 
d="M189 -4l-113 274h-57v124l175 1l98 -247l240 602l150 -56l-295 -698h-198z" />
    <glyph glyph-name="florin" unicode="&#x192;" horiz-adv-x="468" 
d="M225 -179l-178 26l60 433h-58v146h79l22 158c18 130 55 157 271 187l20 -148c-99 -16 -106 -26 -113 -72l-18 -125h99v-146h-119z" />
    <glyph glyph-name="approxequal" unicode="&#x2248;" 
d="M27 0v63h93v48c0 167 71 208 174 214v75h-217v194h69v-131h148v70h-49v192h166v-192h-48v-70h143v131h69v-194h-212v-74c102 -6 173 -43 173 -213v-50h89v-63h-161v100c0 118 -22 152 -101 159v-110h-69v110c-81 -5 -102 -34 -102 -157v-102h-165z" />
    <glyph glyph-name="Delta" unicode="&#x394;" horiz-adv-x="628" 
d="M341 -181l-37 138c86 21 98 29 98 76v310h-130v-203h62v-140h-304v140h59v202h-59v143h59v72c0 132 45 173 345 204l24 -150c-180 -28 -186 -37 -186 -78v-48h313v-476c0 -114 -32 -149 -244 -190z" />
    <glyph glyph-name="guillemotleft" unicode="&#xab;" horiz-adv-x="612" 
d="M428 -17l-141 252l141 254l113 -55l-91 -199l91 -196zM195 -17l-141 252l141 254l114 -55l-91 -199l91 -196z" />
    <glyph glyph-name="guillemotright" unicode="&#xbb;" horiz-adv-x="612" 
d="M417 -17l-113 56l91 197l-91 198l113 55l141 -253zM185 -17l-114 56l91 197l-91 198l114 55l141 -253z" />
    <glyph glyph-name="ellipsis" unicode="&#x2026;" horiz-adv-x="1031" 
d="M758 0v194h220v-194h-220zM405 0v194h221v-194h-221zM53 0v194h220v-194h-220z" />
    <glyph glyph-name="nbspace" unicode="&#xa0;" horiz-adv-x="91" 
 />
    <glyph glyph-name="Agrave" unicode="&#xc0;" horiz-adv-x="776" 
d="M260 222l-27 -84h90v-138h-298v147h53l205 594h207l206 -594h55v-147h-346v138h94l-27 84h-212zM436 335l-20 64c-15 49 -40 128 -49 163c-7 -35 -35 -117 -50 -163l-21 -64h140zM494 764l-271 99l80 152l241 -156z" />
    <glyph glyph-name="Atilde" unicode="&#xc3;" horiz-adv-x="776" 
d="M260 222l-27 -84h90v-138h-298v147h53l205 594h207l206 -594h55v-147h-346v138h94l-27 84h-212zM436 335l-20 64c-15 49 -40 128 -49 163c-7 -35 -35 -117 -50 -163l-21 -64h140zM264 766l-84 103c5 4 33 28 41 34c38 31 84 63 117 63c25 0 52 -12 76 -24
c26 -12 48 -24 62 -24c11 0 26 10 42 23l30 26l84 -103c-6 -5 -28 -24 -36 -30c-40 -33 -88 -67 -122 -67c-27 0 -58 15 -85 28c-22 11 -41 20 -53 20c-11 0 -25 -10 -41 -23c-5 -3 -26 -22 -31 -26z" />
    <glyph glyph-name="Otilde" unicode="&#xd5;" horiz-adv-x="706" 
d="M353 -12c-222 0 -323 57 -323 380c0 322 103 380 325 380s321 -56 321 -378c0 -323 -101 -382 -323 -382zM355 131c98 0 123 35 123 196v76c0 161 -27 198 -125 198s-125 -34 -125 -195v-77c0 -160 29 -198 127 -198zM232 766l-84 103c5 4 33 28 41 34
c38 31 84 63 117 63c25 0 52 -12 76 -24c26 -12 48 -24 62 -24c11 0 26 10 42 23l30 26l84 -103c-6 -5 -28 -24 -36 -30c-40 -33 -88 -67 -122 -67c-27 0 -58 15 -85 28c-22 11 -41 20 -53 20c-11 0 -25 -10 -41 -23c-5 -3 -26 -22 -31 -26z" />
    <glyph glyph-name="OE" unicode="&#x152;" horiz-adv-x="1008" 
d="M345 0c-241 0 -315 42 -315 366c0 325 76 370 315 370h623v-273h-180v132h-178v-157h119v-137h-119v-164h178v150h180v-287h-623zM343 140h83v451h-83c-98 0 -117 -45 -117 -199v-55c0 -154 19 -197 117 -197z" />
    <glyph glyph-name="oe" unicode="&#x153;" horiz-adv-x="852" 
d="M277 -7c-183 0 -250 37 -250 252s69 253 252 253c76 0 126 -12 159 -40c33 28 81 40 154 40c180 0 229 -35 229 -222v-62h-294c1 -95 12 -115 72 -115c17 0 39 2 43 3v65h173v-156c-29 -6 -107 -17 -218 -17c-82 0 -127 12 -160 39c-34 -27 -84 -40 -160 -40zM527 303
h122c-1 75 -12 85 -60 85c-44 0 -57 -9 -62 -85zM278 108c59 0 66 24 66 137s-8 134 -67 134s-66 -20 -66 -133s8 -138 67 -138z" />
    <glyph glyph-name="endash" unicode="&#x2013;" horiz-adv-x="510" 
d="M34 222v141h442v-141h-442z" />
    <glyph glyph-name="emdash" unicode="&#x2014;" horiz-adv-x="800" 
d="M34 222v141h732v-141h-732z" />
    <glyph glyph-name="quotedblleft" unicode="&#x201c;" horiz-adv-x="480" 
d="M389 455l-150 276l172 94l49 -337zM170 455l-150 276l171 94l49 -337z" />
    <glyph glyph-name="quotedblright" unicode="&#x201d;" horiz-adv-x="480" 
d="M310 455l-71 33l49 337l172 -94zM90 455l-70 33l49 337l171 -94z" />
    <glyph glyph-name="quoteleft" unicode="&#x2018;" horiz-adv-x="260" 
d="M170 455l-150 276l171 94l49 -337z" />
    <glyph glyph-name="quoteright" unicode="&#x2019;" horiz-adv-x="260" 
d="M90 455l-70 33l49 337l171 -94z" />
    <glyph glyph-name="divide" unicode="&#xf7;" 
d="M27 0v63h93v48c0 167 71 208 174 214v75h-217v194h69v-131h148v70h-49v192h166v-192h-48v-70h143v131h69v-194h-212v-74c102 -6 173 -43 173 -213v-50h89v-63h-161v100c0 118 -22 152 -101 159v-110h-69v110c-81 -5 -102 -34 -102 -157v-102h-165z" />
    <glyph glyph-name="lozenge" unicode="&#x25ca;" horiz-adv-x="714" 
d="M548 -5c-113 0 -151 31 -151 143v205h-125v-203h73v-140h-315v140h59v202h-59v143h59v75c0 128 27 158 244 200l40 -147c-94 -23 -101 -31 -101 -77v-51h125v114l183 20v-134h105v-143h-105v-163c0 -39 12 -48 44 -48c12 0 43 2 66 5l8 -131c-23 -4 -98 -10 -150 -10z
" />
    <glyph glyph-name="ydieresis" unicode="&#xff;" horiz-adv-x="620" 
d="M121 -179v134h94l25 48l-181 339h-39v143h287v-133h-59l44 -101c20 -41 35 -80 44 -109c9 28 24 67 43 109l40 101h-53v133h234v-143h-34l-192 -387h60v-134h-313zM358 526v160h171v-160h-171zM143 526v160h171v-160h-171z" />
    <glyph glyph-name="Ydieresis" unicode="&#x178;" horiz-adv-x="752" 
d="M199 0v147h77v122l-196 316h-55v151h334v-142h-76s98 -166 115 -197c18 33 119 197 119 197h-76v142h286v-151h-55l-202 -314v-124h78v-147h-349zM420 774v160h171v-160h-171zM205 774v160h171v-160h-171z" />
    <glyph glyph-name="fraction" unicode="&#x2044;" horiz-adv-x="433" 
d="M171 -30l-146 45l237 748l146 -46z" />
    <glyph glyph-name="currency" unicode="&#xa4;" horiz-adv-x="663" 
d="M365 -9c-176 0 -265 44 -290 245h-63v108h55v24v23h-55v108h63c26 201 117 246 292 246c98 0 225 -16 256 -24v-203h-177v74c-17 2 -50 4 -82 4c-67 0 -94 -19 -103 -97h165v-108h-170v-47h170v-108h-164c10 -79 37 -100 104 -100c29 0 62 1 80 5v83h177v-209
c-30 -8 -160 -24 -258 -24z" />
    <glyph glyph-name="guilsinglleft" unicode="&#x2039;" horiz-adv-x="382" 
d="M195 -17l-141 252l141 254l116 -58l-91 -196l91 -194z" />
    <glyph glyph-name="guilsinglright" unicode="&#x203a;" horiz-adv-x="382" 
d="M187 -17l-116 58l91 195l-91 195l116 58l141 -253z" />
    <glyph glyph-name="fi" unicode="&#xfb01;" horiz-adv-x="647" 
d="M30 0v140h59v202h-59v143h59v72c0 132 45 173 345 204l24 -150c-180 -28 -186 -37 -186 -78v-48h309v-345h46v-140h-229v100v36v207h-126v-203h67v-140h-309z" />
    <glyph glyph-name="fl" unicode="&#xfb02;" horiz-adv-x="664" 
d="M30 0v140h59v202h-59v143h59v75c0 128 11 161 214 200l40 -147c-71 -17 -71 -31 -71 -77v-51h67v-143h-67v-202h67v-140h-309zM398 0v125v15v473h-30v145h213v-618h63v-140h-246z" />
    <glyph glyph-name="daggerdbl" unicode="&#x2021;" horiz-adv-x="538" 
d="M129 -134v135h69v88h-168v134h168v155h-168v135h168v88h-69v135h280v-135h-68v-88h167v-135h-167v-155h167v-134h-167v-88h68v-135h-280z" />
    <glyph glyph-name="periodcentered" unicode="&#xb7;" horiz-adv-x="326" 
d="M53 257v188h220v-188h-220z" />
    <glyph glyph-name="quotesinglbase" unicode="&#x201a;" horiz-adv-x="260" 
d="M90 -138l-70 33l49 337l171 -94z" />
    <glyph glyph-name="quotedblbase" unicode="&#x201e;" horiz-adv-x="480" 
d="M310 -138l-71 33l49 337l172 -94zM90 -138l-70 33l49 337l171 -94z" />
    <glyph glyph-name="perthousand" unicode="&#x2030;" horiz-adv-x="1630" 
d="M245 248c-149 0 -220 41 -220 248c0 208 73 251 222 251s219 -41 219 -249c0 -207 -72 -250 -221 -250zM532 -30l-146 45l238 748l145 -46zM1384 -14c-149 0 -220 41 -220 249s73 251 222 251s219 -41 219 -249s-72 -251 -221 -251zM910 -14c-149 0 -220 41 -220 249
s73 251 222 251s219 -41 219 -249s-72 -251 -221 -251zM247 367c52 0 61 19 61 111v37c0 92 -11 108 -63 108c-53 0 -61 -14 -61 -106v-37c0 -92 10 -113 63 -113zM1386 106c52 0 61 19 61 111v36c0 92 -11 109 -63 109c-53 0 -61 -15 -61 -107v-36c0 -92 10 -113 63 -113z
M912 106c52 0 61 19 61 111v36c0 92 -11 109 -63 109c-53 0 -61 -15 -61 -107v-36c0 -92 10 -113 63 -113z" />
    <glyph glyph-name="Acircumflex" unicode="&#xc2;" horiz-adv-x="776" 
d="M260 222l-27 -84h90v-138h-298v147h53l205 594h207l206 -594h55v-147h-346v138h94l-27 84h-212zM436 335l-20 64c-15 49 -40 128 -49 163c-7 -35 -35 -117 -50 -163l-21 -64h140zM241 757l-52 89l195 135l195 -134l-50 -90l-145 63z" />
    <glyph glyph-name="Ecircumflex" unicode="&#xca;" horiz-adv-x="678" 
d="M30 0v147h56v438h-56v151h608v-273h-180v132h-178v-157h119v-137h-119v-164h178v150h180v-287h-608zM208 762l-52 89l195 135l195 -134l-50 -90l-145 63z" />
    <glyph glyph-name="Aacute" unicode="&#xc1;" horiz-adv-x="776" 
d="M260 222l-27 -84h90v-138h-298v147h53l205 594h207l206 -594h55v-147h-346v138h94l-27 84h-212zM436 335l-20 64c-15 49 -40 128 -49 163c-7 -35 -35 -117 -50 -163l-21 -64h140zM279 763l-50 95l242 156l79 -152z" />
    <glyph glyph-name="Edieresis" unicode="&#xcb;" horiz-adv-x="678" 
d="M30 0v147h56v438h-56v151h608v-273h-180v132h-178v-157h119v-137h-119v-164h178v150h180v-287h-608zM373 774v160h171v-160h-171zM158 774v160h171v-160h-171z" />
    <glyph glyph-name="Egrave" unicode="&#xc8;" horiz-adv-x="678" 
d="M30 0v147h56v438h-56v151h608v-273h-180v132h-178v-157h119v-137h-119v-164h178v150h180v-287h-608zM454 764l-271 99l80 152l241 -156z" />
    <glyph glyph-name="Iacute" unicode="&#xcd;" horiz-adv-x="390" 
d="M30 0v147h68v438h-68v151h330v-151h-68v-438h68v-147h-330zM90 763l-50 95l242 156l79 -152z" />
    <glyph glyph-name="Icircumflex" unicode="&#xce;" horiz-adv-x="390" 
d="M30 0v147h68v438h-68v151h330v-151h-68v-438h68v-147h-330zM52 762l-52 89l195 135l195 -134l-50 -90l-145 63z" />
    <glyph glyph-name="Idieresis" unicode="&#xcf;" horiz-adv-x="390" 
d="M30 0v147h68v438h-68v151h330v-151h-68v-438h68v-147h-330zM217 774v160h171v-160h-171zM2 774v160h171v-160h-171z" />
    <glyph glyph-name="Igrave" unicode="&#xcc;" horiz-adv-x="390" 
d="M30 0v147h68v438h-68v151h330v-151h-68v-438h68v-147h-330zM305 764l-271 99l80 152l241 -156z" />
    <glyph glyph-name="Oacute" unicode="&#xd3;" horiz-adv-x="706" 
d="M353 -12c-222 0 -323 57 -323 380c0 322 103 380 325 380s321 -56 321 -378c0 -323 -101 -382 -323 -382zM355 131c98 0 123 35 123 196v76c0 161 -27 198 -125 198s-125 -34 -125 -195v-77c0 -160 29 -198 127 -198zM247 763l-50 95l242 156l79 -152z" />
    <glyph glyph-name="Ocircumflex" unicode="&#xd4;" horiz-adv-x="706" 
d="M353 -12c-222 0 -323 57 -323 380c0 322 103 380 325 380s321 -56 321 -378c0 -323 -101 -382 -323 -382zM355 131c98 0 123 35 123 196v76c0 161 -27 198 -125 198s-125 -34 -125 -195v-77c0 -160 29 -198 127 -198zM216 762l-52 89l195 135l195 -134l-50 -90l-145 63z
" />
    <glyph glyph-name="apple" 
d="M22 0v63h93v48c0 167 71 208 174 214v75h-217v194h69v-131h148v70h-49v192h166v-192h-48v-70h143v131h69v-194h-212v-74c102 -6 173 -43 173 -213v-50h89v-63h-161v100c0 118 -22 152 -101 159v-110h-69v110c-81 -5 -102 -34 -102 -157v-102h-165z" />
    <glyph glyph-name="Ograve" unicode="&#xd2;" horiz-adv-x="706" 
d="M353 -12c-222 0 -323 57 -323 380c0 322 103 380 325 380s321 -56 321 -378c0 -323 -101 -382 -323 -382zM355 131c98 0 123 35 123 196v76c0 161 -27 198 -125 198s-125 -34 -125 -195v-77c0 -160 29 -198 127 -198zM462 764l-271 99l80 152l241 -156z" />
    <glyph glyph-name="Uacute" unicode="&#xda;" horiz-adv-x="765" 
d="M386 -10c-225 0 -303 49 -303 268v327h-53v151h320v-151h-73v-331c0 -95 34 -109 111 -109s110 10 110 107v333h-67v151h304v-151h-53v-325c0 -216 -70 -270 -296 -270zM277 763l-50 95l242 156l79 -152z" />
    <glyph glyph-name="Ucircumflex" unicode="&#xdb;" horiz-adv-x="765" 
d="M386 -10c-225 0 -303 49 -303 268v327h-53v151h320v-151h-73v-331c0 -95 34 -109 111 -109s110 10 110 107v333h-67v151h304v-151h-53v-325c0 -216 -70 -270 -296 -270zM247 762l-52 89l195 135l195 -134l-50 -90l-145 63z" />
    <glyph glyph-name="Ugrave" unicode="&#xd9;" horiz-adv-x="765" 
d="M386 -10c-225 0 -303 49 -303 268v327h-53v151h320v-151h-73v-331c0 -95 34 -109 111 -109s110 10 110 107v333h-67v151h304v-151h-53v-325c0 -216 -70 -270 -296 -270zM492 764l-271 99l80 152l241 -156z" />
    <glyph glyph-name="dotlessi" unicode="&#x131;" horiz-adv-x="342" 
d="M30 0v140h60v202h-60v143h243v-345h49v-140h-292z" />
    <glyph glyph-name="circumflex" unicode="&#x2c6;" horiz-adv-x="526" 
d="M120 514l-52 89l195 135l195 -134l-50 -90l-145 63z" />
    <glyph glyph-name="tilde" unicode="&#x2dc;" horiz-adv-x="544" 
d="M130 518l-84 103c5 4 33 28 41 34c38 31 84 63 117 63c25 0 52 -12 76 -24c26 -12 48 -24 62 -24c11 0 26 10 42 23l30 26l84 -103c-6 -5 -28 -24 -36 -30c-40 -33 -88 -67 -122 -67c-27 0 -58 15 -85 28c-22 11 -41 20 -53 20c-11 0 -25 -10 -41 -23
c-5 -3 -26 -22 -31 -26z" />
    <glyph glyph-name="macron" unicode="&#xaf;" horiz-adv-x="489" 
d="M91 535v157h307v-157h-307z" />
    <glyph glyph-name="breve" unicode="&#x2d8;" horiz-adv-x="515" 
d="M254 518c-58 0 -154 16 -189 34v168h139v-66c12 -7 29 -10 50 -10c20 0 39 2 52 10v66h139v-168c-31 -20 -132 -34 -191 -34z" />
    <glyph glyph-name="dotaccent" unicode="&#x2d9;" horiz-adv-x="487" 
d="M133 531v189h221v-189h-221z" />
    <glyph glyph-name="ring" unicode="&#x2da;" horiz-adv-x="507" 
d="M253 523c-106 0 -154 22 -154 118c0 97 48 122 154 122s155 -25 155 -122c0 -96 -51 -118 -155 -118zM253 585c43 0 55 7 55 56c0 50 -12 59 -55 59s-54 -9 -54 -59c0 -49 11 -56 54 -56z" />
    <glyph glyph-name="cedilla" unicode="&#xb8;" horiz-adv-x="497" 
d="M141 -212l-18 119c40 5 84 17 97 24l-10 85l113 17l23 -180c-25 -21 -94 -55 -205 -65z" />
    <glyph glyph-name="hungarumlaut" unicode="&#x2dd;" horiz-adv-x="486" 
d="M287 510l-72 48l140 254l124 -79zM89 510l-71 48l139 254l125 -79z" />
    <glyph glyph-name="ogonek" unicode="&#x2db;" horiz-adv-x="494" 
d="M339 -214c-110 11 -180 49 -204 70l27 179l113 -19l-13 -85c14 -8 61 -20 97 -25z" />
    <glyph glyph-name="caron" unicode="&#x2c7;" horiz-adv-x="526" 
d="M263 514l-195 134l50 90l145 -63l143 63l52 -89z" />
    <glyph glyph-name="Euro" unicode="&#x20ac;" horiz-adv-x="663" 
d="M365 -9c-176 0 -265 44 -290 245h-63v108h55v24v23h-55v108h63c26 201 117 246 292 246c98 0 225 -16 256 -24v-203h-177v74c-17 2 -50 4 -82 4c-67 0 -94 -19 -103 -97h165v-108h-170v-47h170v-108h-164c10 -79 37 -100 104 -100c29 0 62 1 80 5v83h177v-209
c-30 -8 -160 -24 -258 -24z" />
  </font>
</defs>
</svg>
