<?xml version="1.0" standalone="no"?>
<!DOCTYPE svg PUBLIC "-//W3C//DTD SVG 1.1//EN" "http://www.w3.org/Graphics/SVG/1.1/DTD/svg11.dtd" >
<svg xmlns="http://www.w3.org/2000/svg" width="100%" height="100%">
<metadata>
Created by FontXChange 20110222 at Fri Oct 11 13:55:54 2013
 By Mario Ochoa
[c] Copyright 1999, The Font Bureau, Inc. Designed by Cyrus Highsmith. All Rights Reserved.
</metadata>
<defs>
<font id="Dispatch-Black" horiz-adv-x="766" >
  <font-face 
    font-family="Dispatch"
    font-weight="900"
    font-stretch="normal"
    units-per-em="1000"
    panose-1="2 0 10 3 0 0 0 0 0 0"
    ascent="800"
    descent="-200"
    x-height="485"
    cap-height="736"
    bbox="-38 -225 1819 1094"
    underline-thickness="20"
    underline-position="-133"
    stemh="146"
    stemv="196"
    unicode-range="U+0020-FB02"
  />
    <missing-glyph />
    <glyph glyph-name="NUL" horiz-adv-x="0" 
 />
    <glyph glyph-name="Eth" unicode="&#xd0;" horiz-adv-x="820" 
d="M785 368c0 -327 -120 -369 -371 -369h-377v154h67v153h-65v125h65v147h-67v158h377c251 0 371 -41 371 -368zM569 344v48c0 133 -24 198 -156 198h-102v-159h118v-125h-118v-165h102c132 0 156 70 156 203z" />
    <glyph glyph-name="eth" unicode="&#xf0;" horiz-adv-x="666" 
d="M676 462h-60c6 -40 10 -82 10 -123c0 -300 -64 -350 -298 -350c-202 0 -292 34 -292 262s82 245 176 245c45 0 151 -22 212 -48c-1 12 -4 23 -7 35c-1 4 -2 10 -3 14c-8 36 -19 68 -27 91c-1 2 -2 5 -3 7c-2 7 -5 12 -7 16h-97v150h246c13 -23 36 -79 57 -152h93v-147z
M430 247c0 13 0 63 -1 75c-51 17 -77 22 -129 22c-46 0 -67 -10 -67 -97c0 -107 16 -130 100 -130c85 0 97 40 97 130z" />
    <glyph glyph-name="Lslash" unicode="&#x141;" horiz-adv-x="757" 
d="M728 0h-691v156h67v126l-53 -9l-21 123l74 13v171h-67v156h368v-156h-94v-134l103 18l21 -123l-124 -22v-168h222v133h195v-284z" />
    <glyph glyph-name="lslash" unicode="&#x142;" horiz-adv-x="390" 
d="M367 0h-340v146h70v135l-45 -8l-21 123l66 11v208h-70v146h266v-319l48 8l21 -123l-69 -12v-169h74v-146z" />
    <glyph glyph-name="Scaron" unicode="&#x160;" horiz-adv-x="760" 
d="M729 212c0 -174 -78 -222 -364 -222c-167 0 -293 19 -326 26v228h195v-112c25 -6 89 -9 133 -9c131 0 147 22 147 81c0 61 -24 63 -161 77c-259 27 -317 52 -317 257c0 166 105 208 335 208c110 0 284 -18 323 -30v-209h-195v96c-15 3 -95 6 -130 6
c-98 0 -121 -13 -121 -69s17 -67 148 -80c268 -27 333 -50 333 -248zM595 944l-215 -154l-214 152l56 103l158 -78l157 78z" />
    <glyph glyph-name="scaron" unicode="&#x161;" horiz-adv-x="589" 
d="M563 151c0 -130 -67 -157 -273 -157c-128 0 -221 13 -253 20v145h181v-58c15 -2 42 -4 72 -4c76 0 84 5 84 39c0 29 -4 33 -124 43c-193 16 -221 48 -221 169c0 123 86 154 254 154c107 0 211 -11 258 -27v-138h-181v53c-14 3 -53 5 -74 5c-56 0 -71 -5 -71 -34
c0 -33 14 -36 125 -44c199 -15 223 -33 223 -166zM509 678l-215 -154l-214 152l56 103l158 -78l157 78z" />
    <glyph glyph-name="Yacute" unicode="&#xdd;" horiz-adv-x="876" 
d="M847 578h-62l-246 -320v-104h92v-154h-391v154h92v99l-241 325h-62v158h374v-148h-87l36 -49c43 -59 69 -97 105 -152c32 49 62 94 108 152l39 49h-92v148h335v-158zM620 966l-236 -175l-84 84l192 219z" />
    <glyph glyph-name="yacute" unicode="&#xfd;" horiz-adv-x="729" 
d="M706 337h-44l-236 -400h69v-137h-350v137h115l30 51l-215 349h-52v148h332v-138h-71l46 -77c28 -47 49 -94 63 -125c14 31 35 77 62 125l44 77h-65v138h272v-148zM546 700l-236 -175l-84 84l192 219z" />
    <glyph glyph-name="Thorn" unicode="&#xde;" horiz-adv-x="776" 
d="M752 382c0 -234 -117 -256 -283 -256h-158v-32v-34v-60h-274v154h67v424h-67v158h274v-40v-24v-36h160c166 0 281 -20 281 -254zM545 380c0 78 -31 99 -76 99h-158v-200h160c45 0 74 23 74 101z" />
    <glyph glyph-name="thorn" unicode="&#xfe;" horiz-adv-x="678" 
d="M642 245c0 -182 -46 -253 -166 -253c-85 0 -169 27 -200 39v-89h65v-142h-316v142h55v669h-55v150h251v-320c32 16 128 55 205 55c120 0 161 -69 161 -251zM444 243c0 88 -16 106 -57 106c-55 0 -81 -5 -111 -11v-201c24 -3 53 -7 111 -7c37 0 57 28 57 113z" />
    <glyph glyph-name="Zcaron" unicode="&#x17d;" horiz-adv-x="747" 
d="M718 0h-681v164l209 207c119 118 233 222 246 231h-251v-134h-195v268h663v-169l-211 -209c-137 -136 -209 -204 -238 -228h263v153h195v-283zM588 944l-215 -154l-214 152l56 103l158 -78l157 78z" />
    <glyph glyph-name="zcaron" unicode="&#x17e;" horiz-adv-x="622" 
d="M599 0h-562v135l136 99c104 75 178 126 206 141h-147v-64h-186v174h537v-135l-155 -118c-67 -51 -149 -107 -175 -126h160v86h186v-192zM526 678l-215 -154l-214 152l56 103l158 -78l157 78z" />
    <glyph glyph-name="onehalf" unicode="&#xbd;" 
d="M732 0h-181v90c0 126 -29 158 -128 164v-100h-74v100c-101 -3 -130 -30 -130 -162v-92h-185v66h108v30c0 177 83 222 207 229v75h-250v194h74v-128h176v67h-56v192h186v-192h-56v-67h170v128h74v-194h-244v-75c124 -6 205 -47 205 -227v-32h104v-66z" />
    <glyph glyph-name="onequarter" unicode="&#xbc;" 
d="M732 0h-181v90c0 126 -29 158 -128 164v-100h-74v100c-101 -3 -130 -30 -130 -162v-92h-185v66h108v30c0 177 83 222 207 229v75h-250v194h74v-128h176v67h-56v192h186v-192h-56v-67h170v128h74v-194h-244v-75c124 -6 205 -47 205 -227v-32h104v-66z" />
    <glyph glyph-name="onesuperior" unicode="&#xb9;" 
d="M732 0h-181v90c0 126 -29 158 -128 164v-100h-74v100c-101 -3 -130 -30 -130 -162v-92h-185v66h108v30c0 177 83 222 207 229v75h-250v194h74v-128h176v67h-56v192h186v-192h-56v-67h170v128h74v-194h-244v-75c124 -6 205 -47 205 -227v-32h104v-66z" />
    <glyph glyph-name="threequarters" unicode="&#xbe;" 
d="M732 0h-181v90c0 126 -29 158 -128 164v-100h-74v100c-101 -3 -130 -30 -130 -162v-92h-185v66h108v30c0 177 83 222 207 229v75h-250v194h74v-128h176v67h-56v192h186v-192h-56v-67h170v128h74v-194h-244v-75c124 -6 205 -47 205 -227v-32h104v-66z" />
    <glyph glyph-name="threesuperior" unicode="&#xb3;" 
d="M732 0h-181v90c0 126 -29 158 -128 164v-100h-74v100c-101 -3 -130 -30 -130 -162v-92h-185v66h108v30c0 177 83 222 207 229v75h-250v194h74v-128h176v67h-56v192h186v-192h-56v-67h170v128h74v-194h-244v-75c124 -6 205 -47 205 -227v-32h104v-66z" />
    <glyph glyph-name="twosuperior" unicode="&#xb2;" 
d="M732 0h-181v90c0 126 -29 158 -128 164v-100h-74v100c-101 -3 -130 -30 -130 -162v-92h-185v66h108v30c0 177 83 222 207 229v75h-250v194h74v-128h176v67h-56v192h186v-192h-56v-67h170v128h74v-194h-244v-75c124 -6 205 -47 205 -227v-32h104v-66z" />
    <glyph glyph-name="brokenbar" unicode="&#xa6;" 
d="M732 0h-181v90c0 126 -29 158 -128 164v-100h-74v100c-101 -3 -130 -30 -130 -162v-92h-185v66h108v30c0 177 83 222 207 229v75h-250v194h74v-128h176v67h-56v192h186v-192h-56v-67h170v128h74v-194h-244v-75c124 -6 205 -47 205 -227v-32h104v-66z" />
    <glyph glyph-name="minus" unicode="&#x2212;" 
d="M732 0h-181v90c0 126 -29 158 -128 164v-100h-74v100c-101 -3 -130 -30 -130 -162v-92h-185v66h108v30c0 177 83 222 207 229v75h-250v194h74v-128h176v67h-56v192h186v-192h-56v-67h170v128h74v-194h-244v-75c124 -6 205 -47 205 -227v-32h104v-66z" />
    <glyph glyph-name="multiply" unicode="&#xd7;" 
d="M732 0h-181v90c0 126 -29 158 -128 164v-100h-74v100c-101 -3 -130 -30 -130 -162v-92h-185v66h108v30c0 177 83 222 207 229v75h-250v194h74v-128h176v67h-56v192h186v-192h-56v-67h170v128h74v-194h-244v-75c124 -6 205 -47 205 -227v-32h104v-66z" />
    <glyph glyph-name="space" unicode=" " horiz-adv-x="300" 
 />
    <glyph glyph-name="exclam" unicode="!" horiz-adv-x="389" 
d="M323 736l-45 -505h-167l-45 505h257zM313 0h-237v190h237v-190z" />
    <glyph glyph-name="quotedbl" unicode="&#x22;" horiz-adv-x="572" 
d="M534 736l-34 -285h-162l-34 285h230zM268 736l-34 -285h-162l-34 285h230z" />
    <glyph glyph-name="numbersign" unicode="#" horiz-adv-x="688" 
d="M650 157h-152l-45 -258l-146 22l42 236h-86l-45 -258l-146 22l42 236h-76v135h99l16 87h-115v135h139l49 281l146 -22l-46 -259h86l49 281l146 -22l-46 -259h89v-135h-113l-15 -87h128v-135zM387 379h-85l-15 -87h85z" />
    <glyph glyph-name="dollar" unicode="$" horiz-adv-x="760" 
d="M703 223c0 -146 -59 -205 -243 -225v-105h-157v103c-122 4 -205 19 -234 25v214h195v-83c25 -6 64 -9 108 -9c106 0 128 7 128 71c0 60 -19 68 -122 73c-248 13 -312 53 -312 238c0 150 76 207 237 222v83h161v-84c86 -5 167 -18 197 -27v-209h-195v86c-15 3 -64 6 -92 6
c-77 0 -107 -6 -107 -71c0 -59 25 -69 128 -74c257 -12 308 -45 308 -234z" />
    <glyph glyph-name="percent" unicode="%" horiz-adv-x="1313" 
d="M531 498c0 -208 -86 -251 -249 -251s-247 41 -247 249s86 251 249 251s247 -41 247 -249zM868 705l-270 -737l-155 56l270 737zM1278 238c0 -208 -86 -251 -249 -251s-247 41 -247 249s86 251 249 251s247 -41 247 -249zM358 478v36c0 92 -14 108 -76 108
s-74 -14 -74 -106v-36c0 -92 14 -112 76 -112s74 18 74 110zM1105 218v36c0 92 -14 108 -76 108s-74 -14 -74 -106v-36c0 -92 14 -112 76 -112s74 18 74 110z" />
    <glyph glyph-name="ampersand" unicode="&#x26;" horiz-adv-x="868" 
d="M859 0h-209l-90 81c-33 -62 -70 -91 -163 -91c-78 0 -236 11 -300 66c-37 32 -49 96 -49 177c0 108 57 152 161 178c-33 43 -54 87 -54 139c0 140 83 198 287 198c130 0 224 -13 269 -21v-217h-195v91c-11 4 -61 6 -88 6c-68 0 -82 -21 -82 -61c0 -37 30 -67 102 -131
l76 -67l38 105h269v-146h-172l-23 -58l107 -95h116v-154zM451 179c0 1 -132 120 -132 120c-11 10 -21 20 -32 29c-51 -18 -53 -47 -53 -95c0 -37 5 -53 20 -68c22 -22 95 -33 138 -33c25 0 40 9 59 47z" />
    <glyph glyph-name="quotesingle" unicode="'" horiz-adv-x="306" 
d="M268 736l-34 -285h-162l-34 285h230z" />
    <glyph glyph-name="parenleft" unicode="(" horiz-adv-x="448" 
d="M411 -175c-310 0 -376 80 -376 468s66 478 376 478v-154c-192 0 -201 -48 -201 -324c0 -274 9 -318 201 -318v-150z" />
    <glyph glyph-name="parenright" unicode=")" horiz-adv-x="448" 
d="M413 293c0 -388 -66 -468 -376 -468v150c192 0 201 44 201 318c0 276 -9 324 -201 324v154c310 0 376 -90 376 -478z" />
    <glyph glyph-name="asterisk" unicode="*" horiz-adv-x="618" 
d="M580 393l-66 -114l-150 100l10 -179h-132l13 180l-151 -101l-66 114l162 80l-161 80l66 115l150 -101l-13 181h132l-11 -181l150 101l66 -115l-161 -80z" />
    <glyph glyph-name="plus" unicode="+" horiz-adv-x="540" 
d="M498 186h-156v-150h-144v150h-156v135h156v151h144v-151h156v-135z" />
    <glyph glyph-name="comma" unicode="," horiz-adv-x="389" 
d="M321 119l-147 -255l-100 50l46 321z" />
    <glyph glyph-name="hyphen" unicode="-" horiz-adv-x="390" 
d="M348 222h-306v142h306v-142z" />
    <glyph glyph-name="period" unicode="." horiz-adv-x="389" 
d="M313 0h-237v190h237v-190z" />
    <glyph glyph-name="slash" unicode="/" horiz-adv-x="444" 
d="M453 750l-302 -830l-155 57l302 830z" />
    <glyph glyph-name="zero" unicode="0" horiz-adv-x="758" 
d="M723 370c0 -293 -95 -382 -345 -382s-343 87 -343 380s95 380 345 380s343 -85 343 -378zM516 318v100c0 141 -30 174 -138 174s-136 -31 -136 -172v-100c0 -141 30 -180 138 -180s136 37 136 178z" />
    <glyph glyph-name="one" unicode="1" horiz-adv-x="472" 
d="M435 0h-388v154h97v424h-107v158h314v-582h84v-154z" />
    <glyph glyph-name="two" unicode="2" horiz-adv-x="716" 
d="M664 0h-626v191c114 70 180 109 258 160c153 100 160 103 160 178c0 58 -17 68 -121 68c-27 0 -75 -2 -91 -6v-81h-192v210c52 13 197 28 285 28c257 0 316 -39 316 -217c0 -122 -31 -151 -260 -295c-65 -41 -106 -65 -162 -96h241v95h192v-235z" />
    <glyph glyph-name="three" unicode="3" horiz-adv-x="721" 
d="M678 245c0 -110 -18 -151 -63 -184c-71 -52 -218 -69 -532 -88l-13 161c254 15 354 23 392 51c18 14 22 36 22 61s-3 44 -22 58c-39 28 -127 34 -172 36v119l165 141h-228v-90h-192v226h604v-156l-161 -139c42 -7 101 -23 137 -49c51 -37 63 -85 63 -147z" />
    <glyph glyph-name="four" unicode="4" horiz-adv-x="736" 
d="M698 0h-378v154h97v66h-389v178l333 392l147 -123l-285 -311h194v120h197v-120h84v-136h-84v-66h84v-154z" />
    <glyph glyph-name="five" unicode="5" horiz-adv-x="718" 
d="M676 245c0 -118 -18 -151 -63 -184c-71 -52 -218 -69 -532 -88l-13 161c254 15 354 23 392 51c18 14 22 33 22 58s-3 43 -22 57c-38 28 -124 37 -408 52l11 384h567v-226h-192v86h-206l-4 -117c172 -7 314 -15 385 -67c47 -34 63 -86 63 -167z" />
    <glyph glyph-name="six" unicode="6" horiz-adv-x="721" 
d="M691 221c0 -153 -59 -232 -330 -232c-295 0 -326 86 -326 379v3c0 145 17 226 91 280c60 43 224 75 460 110l30 -163c-246 -37 -332 -53 -365 -81c-22 -19 -21 -46 -21 -84v-3c20 5 132 18 193 18c240 0 268 -20 268 -227zM497 216c0 74 -5 93 -93 93
c-71 0 -135 -5 -174 -12v-33c0 -100 22 -132 133 -132c97 0 134 19 134 84z" />
    <glyph glyph-name="seven" unicode="7" horiz-adv-x="710" 
d="M681 564l-323 -597l-182 91l307 540h-253v-88h-195v226h646v-172z" />
    <glyph glyph-name="eight" unicode="8" horiz-adv-x="765" 
d="M730 204c0 -153 -75 -215 -351 -215c-275 0 -344 62 -344 215c0 94 20 129 143 180c-95 45 -110 87 -110 163c0 155 71 201 312 201s327 -46 327 -201c0 -68 -1 -102 -108 -155c115 -49 131 -89 131 -188zM519 547c0 46 -51 50 -140 50c-87 0 -113 -4 -113 -50
c0 -51 22 -47 131 -83c21 -7 41 -14 60 -20c60 28 62 41 62 103zM527 204c0 67 -18 66 -172 115c-15 5 -30 10 -43 14c-82 -37 -84 -52 -84 -129c0 -53 41 -68 151 -68c114 0 148 15 148 68z" />
    <glyph glyph-name="nine" unicode="9" horiz-adv-x="721" 
d="M686 365c0 -144 -17 -225 -91 -279c-60 -43 -224 -75 -460 -110l-30 159c246 37 332 53 365 81c22 19 21 49 21 87v4c-20 -5 -132 -18 -193 -18c-240 0 -268 20 -268 227c0 153 59 232 330 232c295 0 326 -86 326 -379v-4zM491 440v33c0 100 -22 128 -133 128
c-97 0 -134 -15 -134 -80c0 -74 5 -93 93 -93c71 0 135 5 174 12z" />
    <glyph glyph-name="colon" unicode=":" horiz-adv-x="389" 
d="M313 296h-237v190h237v-190zM313 0h-237v190h237v-190z" />
    <glyph glyph-name="semicolon" unicode=";" horiz-adv-x="389" 
d="M313 296h-237v190h237v-190zM321 119l-147 -255l-100 50l46 321z" />
    <glyph glyph-name="less" unicode="&#x3c;" horiz-adv-x="483" 
d="M418 94l-97 -97l-278 279l278 279l97 -97l-188 -182z" />
    <glyph glyph-name="equal" unicode="=" horiz-adv-x="520" 
d="M463 294h-406v124h406v-124zM463 98h-406v124h406v-124z" />
    <glyph glyph-name="greater" unicode="&#x3e;" horiz-adv-x="483" 
d="M440 276l-278 -279l-97 97l188 182l-188 182l97 97z" />
    <glyph glyph-name="question" unicode="?" horiz-adv-x="692" 
d="M663 548c0 -113 -30 -141 -255 -246v-71h-187v132c235 116 235 103 235 183c0 37 -24 53 -122 53c-46 0 -80 -6 -101 -11v-121h-195v249c49 13 159 32 296 32c267 0 329 -48 329 -200zM431 0h-237v190h237v-190z" />
    <glyph glyph-name="at" unicode="@" horiz-adv-x="1092" 
d="M1057 248c0 -169 -18 -261 -457 -261l-13 65c-33 -24 -114 -61 -173 -61c-150 0 -200 55 -156 265c38 184 73 240 192 240c55 0 149 -31 202 -61l26 50h175l-80 -390c161 0 176 51 176 155c0 275 -38 338 -403 338s-403 -71 -403 -346s39 -347 403 -347h143v-93h-143
c-462 0 -511 126 -511 439s49 440 511 440s511 -119 511 -433zM623 319c-30 19 -78 30 -108 30c-31 0 -40 -5 -60 -97c-23 -107 -14 -122 32 -122c42 0 93 24 109 38z" />
    <glyph glyph-name="A" unicode="A" horiz-adv-x="903" 
d="M874 0h-392v144h110l-31 78h-258l-32 -78h102v-144h-344v154h67l238 587h230l240 -587h70v-154zM519 336l-17 43c-20 50 -56 150 -69 185c-13 -36 -52 -140 -70 -185l-17 -43h173z" />
    <glyph glyph-name="B" unicode="B" horiz-adv-x="807" 
d="M768 207c0 -154 -74 -207 -278 -207h-453v154h67v424h-67v158h433c182 0 278 -30 278 -182c0 -116 -45 -152 -117 -171c71 -14 137 -53 137 -176zM541 514c0 58 -28 76 -71 76h-162v-155h162c43 0 71 21 71 79zM561 227c0 58 -28 87 -71 87h-182v-172h182
c43 0 71 27 71 85z" />
    <glyph glyph-name="C" unicode="C" horiz-adv-x="771" 
d="M714 21c-36 -10 -169 -30 -313 -30c-244 0 -366 72 -366 377s129 377 368 377c144 0 275 -20 311 -30v-248h-195v113c-23 3 -79 6 -118 6c-124 0 -150 -62 -150 -187v-58c0 -122 25 -195 152 -195c41 0 93 2 116 6v131h195v-262z" />
    <glyph glyph-name="D" unicode="D" horiz-adv-x="820" 
d="M785 368c0 -327 -120 -369 -371 -369h-377v154h67v425h-67v158h377c251 0 371 -41 371 -368zM569 344v48c0 133 -24 198 -156 198h-102v-449h102c132 0 156 70 156 203z" />
    <glyph glyph-name="E" unicode="E" horiz-adv-x="785" 
d="M728 0h-691v154h67v424h-67v158h691v-269h-195v121h-222v-149h154v-139h-154v-156h222v139h195v-283z" />
    <glyph glyph-name="F" unicode="F" horiz-adv-x="757" 
d="M728 468h-195v115h-222v-150h174v-146h-174v-133h94v-154h-368v154h67v424h-67v158h691v-268z" />
    <glyph glyph-name="G" unicode="G" horiz-adv-x="788" 
d="M771 254h-62v-233c-36 -10 -164 -30 -308 -30c-244 0 -366 72 -366 377s129 377 368 377c144 0 275 -20 311 -30v-248h-195v113c-23 3 -79 6 -118 6c-124 0 -150 -62 -150 -187v-58c0 -122 16 -198 161 -198c41 0 94 3 117 7v104h-88v140h330v-140z" />
    <glyph glyph-name="H" unicode="H" horiz-adv-x="889" 
d="M852 0h-353v154h79v151h-267v-151h79v-154h-353v154h67v424h-67v158h353v-158h-79v-134h267v134h-79v158h353v-158h-67v-424h67v-154z" />
    <glyph glyph-name="I" unicode="I" horiz-adv-x="439" 
d="M402 0h-365v154h79v424h-79v158h365v-158h-79v-424h79v-154z" />
    <glyph glyph-name="J" unicode="J" horiz-adv-x="715" 
d="M678 578h-64v-313c0 -230 -105 -271 -304 -271c-105 0 -240 20 -281 30v259h195v-131c16 -2 68 -5 86 -5c67 0 97 28 97 118v313h-99v158h370v-158z" />
    <glyph glyph-name="K" unicode="K" horiz-adv-x="856" 
d="M827 0h-358v144h62l-125 150l-98 -87v-63h52v-144h-323v154h67v424h-67v158h323v-148h-52v-224c10 16 37 46 126 124l114 100h-79v148h350v-158h-69l-198 -176l207 -248h68v-154z" />
    <glyph glyph-name="L" unicode="L" horiz-adv-x="757" 
d="M728 0h-691v154h67v424h-67v158h373v-158h-99v-429h222v135h195v-284z" />
    <glyph glyph-name="M" unicode="M" horiz-adv-x="1053" 
d="M1016 0h-341v154h69v129c0 105 4 213 5 284c-19 -64 -51 -179 -85 -284l-60 -188h-195l-61 188c-34 104 -65 220 -84 284c2 -73 5 -179 5 -284v-129h69v-154h-301v154h67v424h-67v158h372l74 -226c24 -74 40 -130 51 -182c13 52 25 106 49 181l71 227h362v-158h-67v-424
h67v-154z" />
    <glyph glyph-name="N" unicode="N" horiz-adv-x="886" 
d="M849 578h-64v-578h-195l-322 490c5 -42 7 -134 7 -196v-140h83v-154h-321v154h67v424h-67v158h296l288 -438c-6 45 -7 106 -7 190v90h-77v158h312v-158z" />
    <glyph glyph-name="O" unicode="O" horiz-adv-x="832" 
d="M797 370c0 -323 -150 -382 -382 -382s-380 57 -380 380s150 380 382 380s380 -55 380 -378zM581 339v58c0 139 -37 195 -166 195s-164 -54 -164 -193v-58c0 -139 37 -201 166 -201s164 60 164 199z" />
    <glyph glyph-name="P" unicode="P" horiz-adv-x="776" 
d="M752 485c0 -234 -117 -254 -283 -254h-160v-82h94v-149h-366v154h67v424h-67v158h434c166 0 281 -17 281 -251zM545 483c0 78 -31 106 -76 106h-160v-213h162c45 0 74 29 74 107z" />
    <glyph glyph-name="Q" unicode="Q" horiz-adv-x="832" 
d="M797 370c0 -161 -35 -241 -95 -293l86 -115l-187 -132l-125 169c-20 -3 -41 -4 -61 -4c-232 0 -380 50 -380 373s150 380 382 380s380 -55 380 -378zM581 339v58c0 139 -37 195 -166 195s-164 -54 -164 -193v-58c0 -139 37 -197 166 -197c17 0 32 1 46 3c6 1 11 2 17 3
c22 5 39 13 53 24c7 6 13 12 18 19c22 31 30 80 30 146z" />
    <glyph glyph-name="R" unicode="R" horiz-adv-x="835" 
d="M806 0h-299v86v50l-94 130h-105v-122h90v-144h-361v154h67v424h-67v158h434c166 0 281 -15 281 -236c0 -116 -36 -175 -122 -205l103 -141h73v-154zM545 495c0 74 -31 94 -76 94h-161v-193h163c45 0 74 25 74 99z" />
    <glyph glyph-name="S" unicode="S" horiz-adv-x="760" 
d="M729 212c0 -174 -78 -222 -364 -222c-167 0 -293 19 -326 26v228h195v-112c25 -6 89 -9 133 -9c131 0 147 22 147 81c0 61 -24 63 -161 77c-259 27 -317 52 -317 257c0 166 105 208 335 208c110 0 284 -18 323 -30v-209h-195v96c-15 3 -95 6 -130 6
c-98 0 -121 -13 -121 -69s17 -67 148 -80c268 -27 333 -50 333 -248z" />
    <glyph glyph-name="T" unicode="T" horiz-adv-x="832" 
d="M803 467h-180v132h-104v-446h84v-153h-374v154h84v446h-104v-132h-180v268h774v-269z" />
    <glyph glyph-name="U" unicode="U" horiz-adv-x="888" 
d="M851 578h-64v-318c0 -216 -101 -270 -339 -270s-347 49 -347 268v320h-64v158h360v-158h-89v-319c0 -94 49 -105 142 -105s140 6 140 103v321h-85v158h346v-158z" />
    <glyph glyph-name="V" unicode="V" horiz-adv-x="903" 
d="M874 578h-68l-237 -583h-230l-240 583h-70v158h392v-148h-108l78 -197c33 -84 56 -149 79 -218c24 68 46 135 80 218l80 197h-100v148h344v-158z" />
    <glyph glyph-name="W" unicode="W" horiz-adv-x="1127" 
d="M1098 578h-63l-143 -583h-238l-55 238c-13 58 -28 136 -34 168c-5 -32 -19 -108 -34 -167l-60 -239h-227l-152 583h-63v158h371v-148h-91l33 -149c17 -78 36 -159 46 -237c12 77 31 159 52 237l60 227h174l61 -227c21 -78 42 -169 52 -237c10 69 27 159 45 237l34 149
h-92v148h324v-158z" />
    <glyph glyph-name="X" unicode="X" horiz-adv-x="870" 
d="M841 0h-392v139h86l-27 33c-11 13 -97 113 -104 125c-7 -12 -96 -112 -107 -125l-27 -33h90v-139h-331v154h57l190 217l-182 207h-55v158h373v-143h-82l34 -38c11 -13 86 -100 95 -115c8 14 83 102 95 115l34 37h-87v144h330v-158h-58l-185 -211l183 -213h70v-154z" />
    <glyph glyph-name="Y" unicode="Y" horiz-adv-x="876" 
d="M847 578h-62l-246 -320v-104h92v-154h-391v154h92v99l-241 325h-62v158h374v-148h-87l36 -49c43 -59 69 -97 105 -152c32 49 62 94 108 152l39 49h-92v148h335v-158z" />
    <glyph glyph-name="Z" unicode="Z" horiz-adv-x="747" 
d="M718 0h-681v164l209 207c119 118 233 222 246 231h-251v-134h-195v268h663v-169l-211 -209c-137 -136 -209 -204 -238 -228h263v153h195v-283z" />
    <glyph glyph-name="bracketleft" unicode="[" horiz-adv-x="415" 
d="M378 -175h-303v946h303v-154h-132v-642h132v-150z" />
    <glyph glyph-name="backslash" unicode="\" horiz-adv-x="444" 
d="M452 -23l-155 -57l-302 830l155 57z" />
    <glyph glyph-name="bracketright" unicode="]" horiz-adv-x="415" 
d="M340 -175h-303v150h142v642h-142v154h303v-946z" />
    <glyph glyph-name="asciicircum" unicode="^" horiz-adv-x="562" 
d="M487 632l-48 -88l-158 68l-157 -68l-50 86l207 144z" />
    <glyph glyph-name="underscore" unicode="_" horiz-adv-x="584" 
d="M622 -191h-660v142h660v-142z" />
    <glyph glyph-name="grave" unicode="`" horiz-adv-x="499" 
d="M388 609l-84 -84l-236 175l128 128z" />
    <glyph glyph-name="a" unicode="a" horiz-adv-x="635" 
d="M612 0h-226l-15 48c-35 -18 -108 -55 -210 -55c-79 0 -134 53 -134 164c0 41 6 95 39 116c43 27 130 32 300 32v50c0 22 -5 30 -53 30c-15 0 -40 0 -64 -2v-46h-186v147c54 9 166 17 250 17c196 0 249 -50 249 -158v-199h50v-144zM366 126v91c-67 0 -95 -2 -123 -8
c-14 -3 -20 -23 -20 -45c0 -35 11 -48 45 -48c30 0 76 5 98 10z" />
    <glyph glyph-name="b" unicode="b" horiz-adv-x="680" 
d="M644 245c0 -182 -46 -253 -166 -253c-85 0 -173 27 -205 42l-15 -34h-231v144h55v467h-57v150h253v-320c32 16 128 55 205 55c120 0 161 -69 161 -251zM446 243c0 88 -16 106 -57 106c-55 0 -81 -5 -111 -11v-201c24 -3 53 -7 111 -7c37 0 57 28 57 113z" />
    <glyph glyph-name="c" unicode="c" horiz-adv-x="622" 
d="M573 15c-48 -10 -121 -22 -241 -22c-214 0 -297 40 -297 253s85 255 299 255c120 0 186 -12 239 -25v-193h-186v85c-12 3 -27 5 -55 5c-92 0 -100 -27 -100 -125c0 -97 10 -131 102 -131c17 0 34 1 53 5v89h186v-196z" />
    <glyph glyph-name="d" unicode="d" horiz-adv-x="680" 
d="M657 0h-235l-15 47c-32 -16 -125 -58 -210 -58c-120 0 -161 72 -161 254s46 253 166 253c85 0 169 -27 200 -39v154h-65v150h261v-617h59v-144zM402 150v201c-24 3 -53 7 -111 7c-37 0 -57 -28 -57 -113c0 -88 16 -106 57 -106c55 0 81 5 111 11z" />
    <glyph glyph-name="e" unicode="e" horiz-adv-x="625" 
d="M582 213h-351c1 -86 18 -106 102 -106c27 0 45 3 54 5v50h186v-147c-22 -6 -107 -22 -242 -22c-214 0 -296 43 -296 253c0 217 93 254 283 254c213 0 264 -36 264 -224v-63zM394 303c-3 70 -11 81 -79 81c-62 0 -73 -11 -84 -81h163z" />
    <glyph glyph-name="f" unicode="f" horiz-adv-x="437" 
d="M414 615c-105 -26 -111 -36 -111 -92v-38h104v-148h-104v-193h104v-144h-370v144h70v193h-70v148h70v68c0 127 33 165 267 211z" />
    <glyph glyph-name="g" unicode="g" horiz-adv-x="627" 
d="M607 -29c0 -150 -20 -175 -545 -176h-20v183h196v-57c176 -1 180 12 180 48s-9 42 -313 48l21 151c-92 24 -111 54 -111 149c0 130 31 179 280 179c41 0 81 -3 111 -7l32 76l168 -63l-49 -120c5 -15 8 -42 8 -64c0 -137 -28 -165 -276 -165h-1l-4 -40
c277 -10 323 -26 323 -142zM376 317c0 25 -3 44 -6 58c-21 2 -44 3 -80 3c-69 0 -86 -4 -86 -61c0 -64 17 -66 86 -66s86 2 86 66z" />
    <glyph glyph-name="h" unicode="h" horiz-adv-x="698" 
d="M675 0h-251v67v79v166c0 27 -14 34 -54 34c-33 0 -74 -7 -92 -11v-191h65v-144h-316v144h55v467h-55v150h251v-320c37 20 132 55 204 55c91 0 138 -36 138 -120v-232h55v-144z" />
    <glyph glyph-name="i" unicode="i" horiz-adv-x="386" 
d="M303 542h-215v184h215v-184zM363 0h-326v144h70v193h-70v148h266v-341h60v-144z" />
    <glyph glyph-name="j" unicode="j" horiz-adv-x="358" 
d="M303 542h-215v184h215v-184zM303 12c0 -127 -33 -165 -267 -211l-40 149c105 26 111 36 111 92v295h-70v148h266v-473z" />
    <glyph glyph-name="k" unicode="k" horiz-adv-x="685" 
d="M662 0h-244l-1 103l-84 95l-55 -37v-27h59v-134h-310v144h55v467h-55v150h251v-470c17 16 55 47 102 79l31 21v41v53h220v-146h-90l-62 -42l129 -153h54v-144z" />
    <glyph glyph-name="l" unicode="l" horiz-adv-x="390" 
d="M367 0h-340v144h70v467h-70v150h266v-617h74v-144z" />
    <glyph glyph-name="m" unicode="m" horiz-adv-x="1030" 
d="M1007 0h-251v48v90v174c0 27 -9 34 -49 34c-37 0 -74 -8 -87 -11v-191h55v-144h-251v58v78v176c0 27 -9 34 -49 34c-37 0 -74 -8 -87 -11v-191h55v-144h-306v144h55v193h-55v148h231l15 -47c49 23 120 58 211 58c63 0 101 -25 114 -61c60 31 139 61 215 61
c90 0 129 -36 129 -130v-222h55v-144z" />
    <glyph glyph-name="n" unicode="n" horiz-adv-x="708" 
d="M685 0h-251v60v81v171c0 27 -14 34 -54 34c-37 0 -79 -8 -92 -11v-191h65v-144h-316v144h55v193h-55v148h231l15 -47c33 19 134 58 209 58c91 0 138 -36 138 -120v-232h55v-144z" />
    <glyph glyph-name="o" unicode="o" horiz-adv-x="654" 
d="M619 248c0 -205 -76 -255 -293 -255s-291 48 -291 253s76 255 293 255s291 -48 291 -253zM422 246c0 94 -10 127 -96 127s-94 -31 -94 -125s10 -131 96 -131s94 35 94 129z" />
    <glyph glyph-name="p" unicode="p" horiz-adv-x="680" 
d="M644 245c0 -182 -46 -253 -166 -253c-85 0 -169 27 -200 39v-89h65v-142h-316v142h55v395h-55v148h231l15 -47c32 16 125 58 210 58c120 0 161 -69 161 -251zM446 243c0 88 -16 106 -57 106c-55 0 -81 -5 -111 -11v-201c24 -3 53 -7 111 -7c37 0 57 28 57 113z" />
    <glyph glyph-name="q" unicode="q" horiz-adv-x="680" 
d="M651 -200h-304v142h55v103c-32 -16 -120 -56 -205 -56c-120 0 -161 72 -161 254s46 253 166 253c85 0 174 -29 205 -41l15 30h229v-148h-53v-395h53v-142zM402 150v201c-24 3 -53 7 -111 7c-37 0 -57 -28 -57 -113c0 -88 16 -106 57 -106c55 0 81 5 111 11z" />
    <glyph glyph-name="r" unicode="r" horiz-adv-x="567" 
d="M544 283h-191v49c-14 -1 -56 -5 -65 -8v-180h65v-144h-316v144h55v193h-55v148h231l15 -57c70 35 164 70 261 75v-220z" />
    <glyph glyph-name="s" unicode="s" horiz-adv-x="589" 
d="M563 151c0 -130 -67 -157 -273 -157c-128 0 -221 13 -253 20v145h181v-58c15 -2 42 -4 72 -4c76 0 84 5 84 39c0 29 -4 33 -124 43c-193 16 -221 48 -221 169c0 123 86 154 254 154c107 0 211 -11 258 -27v-138h-181v53c-14 3 -53 5 -74 5c-56 0 -71 -5 -71 -34
c0 -33 14 -36 125 -44c199 -15 223 -33 223 -166z" />
    <glyph glyph-name="t" unicode="t" horiz-adv-x="431" 
d="M397 5c-23 -4 -102 -10 -155 -10c-128 0 -169 38 -169 159v183h-55v148h55v144l196 20v-164h115v-148h-115v-135c0 -54 18 -67 55 -67c12 0 39 2 65 5z" />
    <glyph glyph-name="u" unicode="u" horiz-adv-x="698" 
d="M675 0h-235l-15 47c-33 -19 -134 -58 -209 -58c-91 0 -138 36 -138 120v228h-55v148h251v-312c0 -27 14 -34 54 -34c37 0 79 8 92 11v187h-65v148h261v-341h59v-144z" />
    <glyph glyph-name="v" unicode="v" horiz-adv-x="704" 
d="M681 337h-44l-182 -341h-196l-184 341h-52v148h317v-138h-61l38 -72c16 -31 46 -95 60 -132c14 35 44 103 59 132l38 72h-55v138h262v-148z" />
    <glyph glyph-name="w" unicode="w" horiz-adv-x="951" 
d="M928 337h-47l-123 -341h-196l-90 226l-82 -226h-196l-123 341h-48v148h309v-138h-64l21 -74c14 -49 24 -89 32 -126c10 38 20 78 36 126l55 162h173l55 -163c16 -48 25 -81 37 -125c9 45 17 77 31 125l22 75h-64v138h262v-148z" />
    <glyph glyph-name="x" unicode="x" horiz-adv-x="669" 
d="M646 0h-273v73v32l-54 46l-35 -29v-34v-88h-261v144h82l106 87l-124 106h-49v148h278v-89v-23l43 -43l36 34v30v91h236v-148h-70l-100 -84l131 -109h54v-144z" />
    <glyph glyph-name="y" unicode="y" horiz-adv-x="729" 
d="M706 337h-44l-236 -400h69v-137h-350v137h115l30 51l-215 349h-52v148h332v-138h-71l46 -77c28 -47 49 -94 63 -125c14 31 35 77 62 125l44 77h-65v138h272v-148z" />
    <glyph glyph-name="z" unicode="z" horiz-adv-x="622" 
d="M599 0h-562v135l136 99c104 75 178 126 206 141h-147v-64h-186v174h537v-135l-155 -118c-67 -51 -149 -107 -175 -126h160v86h186v-192z" />
    <glyph glyph-name="braceleft" unicode="{" horiz-adv-x="531" 
d="M494 -175c-290 0 -366 70 -375 396h-90v147h90c9 325 86 403 375 403v-154c-192 0 -201 -48 -201 -324c0 -274 9 -318 201 -318v-150z" />
    <glyph glyph-name="bar" unicode="|" horiz-adv-x="444" 
d="M303 -136h-162v897h162v-897z" />
    <glyph glyph-name="braceright" unicode="}" horiz-adv-x="531" 
d="M502 221h-90c-9 -326 -85 -396 -375 -396v150c192 0 201 44 201 318c0 276 -9 324 -201 324v154c289 0 366 -78 375 -403h90v-147z" />
    <glyph glyph-name="asciitilde" unicode="~" horiz-adv-x="500" 
d="M491 626c-37 -31 -117 -97 -165 -97s-118 48 -146 48c-19 0 -54 -29 -85 -55l-86 109c37 32 117 97 165 97s118 -48 146 -48c19 0 54 29 85 55z" />
    <glyph glyph-name="Adieresis" unicode="&#xc4;" horiz-adv-x="903" 
d="M849 575h-182v161h182v-161zM234 575h-182v161h182v-161zM874 0h-392v144h110l-31 78h-258l-32 -78h102v-144h-344v154h67l238 587h230l240 -587h70v-154zM519 336l-17 43c-20 50 -56 150 -69 185c-13 -36 -52 -140 -70 -185l-17 -43h173z" />
    <glyph glyph-name="Aring" unicode="&#xc5;" horiz-adv-x="903" 
d="M874 0h-392v144h110l-31 78h-258l-32 -78h102v-144h-344v154h67l221 546c-24 18 -37 47 -37 92c0 97 59 122 171 122s171 -25 171 -122c0 -46 -14 -76 -41 -94l223 -544h70v-154zM511 792c0 50 -16 59 -60 59s-59 -9 -59 -59s15 -56 59 -56s60 6 60 56zM519 336l-17 43
c-20 50 -56 150 -69 185c-13 -36 -52 -140 -70 -185l-17 -43h173z" />
    <glyph glyph-name="Ccedilla" unicode="&#xc7;" horiz-adv-x="783" 
d="M714 21c-29 -8 -124 -23 -236 -28l26 -137c-23 -23 -98 -63 -209 -80l-27 124c40 7 91 22 104 31l-12 61c-216 8 -325 88 -325 376c0 305 129 377 368 377c144 0 275 -20 311 -30v-248h-195v113c-23 3 -79 6 -118 6c-124 0 -150 -62 -150 -187v-58
c0 -122 25 -195 152 -195c41 0 93 2 116 6v131h195v-262z" />
    <glyph glyph-name="Eacute" unicode="&#xc9;" horiz-adv-x="785" 
d="M728 0h-691v154h67v424h-67v158h691v-269h-195v121h-222v-149h154v-139h-154v-156h222v139h195v-283zM574 966l-236 -175l-84 84l192 219z" />
    <glyph glyph-name="Ntilde" unicode="&#xd1;" horiz-adv-x="886" 
d="M849 578h-64v-578h-195l-322 490c5 -42 7 -134 7 -196v-140h83v-154h-321v154h67v424h-67v158h296l288 -438c-6 45 -7 106 -7 190v90h-77v158h312v-158zM684 892c-37 -31 -117 -97 -165 -97s-118 48 -146 48c-19 0 -54 -29 -85 -55l-86 109c37 32 117 97 165 97
s118 -48 146 -48c19 0 54 29 85 55z" />
    <glyph glyph-name="Odieresis" unicode="&#xd6;" horiz-adv-x="832" 
d="M797 370c0 -323 -150 -382 -382 -382s-380 57 -380 380s150 380 382 380s380 -55 380 -378zM581 339v58c0 139 -37 195 -166 195s-164 -54 -164 -193v-58c0 -139 37 -201 166 -201s164 60 164 199zM624 802h-182v161h182v-161zM390 802h-182v161h182v-161z" />
    <glyph glyph-name="Udieresis" unicode="&#xdc;" horiz-adv-x="888" 
d="M851 578h-64v-318c0 -216 -101 -270 -339 -270s-347 49 -347 268v320h-64v158h360v-158h-89v-319c0 -94 49 -105 142 -105s140 6 140 103v321h-85v158h346v-158zM658 802h-182v161h182v-161zM424 802h-182v161h182v-161z" />
    <glyph glyph-name="aacute" unicode="&#xe1;" horiz-adv-x="635" 
d="M612 0h-226l-15 48c-35 -18 -108 -55 -210 -55c-79 0 -134 53 -134 164c0 41 6 95 39 116c43 27 130 32 300 32v50c0 22 -5 30 -53 30c-15 0 -40 0 -64 -2v-46h-186v147c54 9 166 17 250 17c196 0 249 -50 249 -158v-199h50v-144zM366 126v91c-67 0 -95 -2 -123 -8
c-14 -3 -20 -23 -20 -45c0 -35 11 -48 45 -48c30 0 76 5 98 10zM499 700l-236 -175l-84 84l192 219z" />
    <glyph glyph-name="agrave" unicode="&#xe0;" horiz-adv-x="635" 
d="M612 0h-226l-15 48c-35 -18 -108 -55 -210 -55c-79 0 -134 53 -134 164c0 41 6 95 39 116c43 27 130 32 300 32v50c0 22 -5 30 -53 30c-15 0 -40 0 -64 -2v-46h-186v147c54 9 166 17 250 17c196 0 249 -50 249 -158v-199h50v-144zM366 126v91c-67 0 -95 -2 -123 -8
c-14 -3 -20 -23 -20 -45c0 -35 11 -48 45 -48c30 0 76 5 98 10zM456 609l-84 -84l-236 175l128 128z" />
    <glyph glyph-name="acircumflex" unicode="&#xe2;" horiz-adv-x="635" 
d="M612 0h-226l-15 48c-35 -18 -108 -55 -210 -55c-79 0 -134 53 -134 164c0 41 6 95 39 116c43 27 130 32 300 32v50c0 22 -5 30 -53 30c-15 0 -40 0 -64 -2v-46h-186v147c54 9 166 17 250 17c196 0 249 -50 249 -158v-199h50v-144zM366 126v91c-67 0 -95 -2 -123 -8
c-14 -3 -20 -23 -20 -45c0 -35 11 -48 45 -48c30 0 76 5 98 10zM531 627l-56 -103l-158 78l-157 -78l-58 101l215 154z" />
    <glyph glyph-name="adieresis" unicode="&#xe4;" horiz-adv-x="635" 
d="M612 0h-226l-15 48c-35 -18 -108 -55 -210 -55c-79 0 -134 53 -134 164c0 41 6 95 39 116c43 27 130 32 300 32v50c0 22 -5 30 -53 30c-15 0 -40 0 -64 -2v-46h-186v147c54 9 166 17 250 17c196 0 249 -50 249 -158v-199h50v-144zM366 126v91c-67 0 -95 -2 -123 -8
c-14 -3 -20 -23 -20 -45c0 -35 11 -48 45 -48c30 0 76 5 98 10zM525 536h-182v161h182v-161zM291 536h-182v161h182v-161z" />
    <glyph glyph-name="atilde" unicode="&#xe3;" horiz-adv-x="635" 
d="M612 0h-226l-15 48c-35 -18 -108 -55 -210 -55c-79 0 -134 53 -134 164c0 41 6 95 39 116c43 27 130 32 300 32v50c0 22 -5 30 -53 30c-15 0 -40 0 -64 -2v-46h-186v147c54 9 166 17 250 17c196 0 249 -50 249 -158v-199h50v-144zM366 126v91c-67 0 -95 -2 -123 -8
c-14 -3 -20 -23 -20 -45c0 -35 11 -48 45 -48c30 0 76 5 98 10zM558 626c-37 -31 -117 -97 -165 -97s-118 48 -146 48c-19 0 -54 -29 -85 -55l-86 109c37 32 117 97 165 97s118 -48 146 -48c19 0 54 29 85 55z" />
    <glyph glyph-name="aring" unicode="&#xe5;" horiz-adv-x="635" 
d="M612 0h-226l-15 48c-35 -18 -108 -55 -210 -55c-79 0 -134 53 -134 164c0 41 6 95 39 116c43 27 130 32 300 32v50c0 22 -5 30 -53 30c-15 0 -40 0 -64 -2v-46h-186v147c54 9 166 17 250 17c196 0 249 -50 249 -158v-199h50v-144zM366 126v91c-67 0 -95 -2 -123 -8
c-14 -3 -20 -23 -20 -45c0 -35 11 -48 45 -48c30 0 76 5 98 10zM488 652c0 -97 -61 -119 -171 -119c-112 0 -171 22 -171 119s59 122 171 122s171 -25 171 -122zM377 652c0 50 -16 59 -60 59s-59 -9 -59 -59s15 -56 59 -56s60 6 60 56z" />
    <glyph glyph-name="ccedilla" unicode="&#xe7;" horiz-adv-x="622" 
d="M573 15c-39 -8 -93 -17 -175 -21l26 -138c-23 -23 -98 -63 -209 -80l-27 124c40 7 91 22 104 31l-12 63c-176 7 -245 57 -245 252c0 213 85 255 299 255c120 0 186 -12 239 -25v-193h-186v85c-12 3 -27 5 -55 5c-92 0 -100 -27 -100 -125c0 -97 10 -131 102 -131
c17 0 34 1 53 5v89h186v-196z" />
    <glyph glyph-name="eacute" unicode="&#xe9;" horiz-adv-x="625" 
d="M582 213h-351c1 -86 18 -106 102 -106c27 0 45 3 54 5v50h186v-147c-22 -6 -107 -22 -242 -22c-214 0 -296 43 -296 253c0 217 93 254 283 254c213 0 264 -36 264 -224v-63zM394 303c-3 70 -11 81 -79 81c-62 0 -73 -11 -84 -81h163zM494 700l-236 -175l-84 84l192 219z
" />
    <glyph glyph-name="egrave" unicode="&#xe8;" horiz-adv-x="625" 
d="M582 213h-351c1 -86 18 -106 102 -106c27 0 45 3 54 5v50h186v-147c-22 -6 -107 -22 -242 -22c-214 0 -296 43 -296 253c0 217 93 254 283 254c213 0 264 -36 264 -224v-63zM394 303c-3 70 -11 81 -79 81c-62 0 -73 -11 -84 -81h163zM451 609l-84 -84l-236 175l128 128z
" />
    <glyph glyph-name="ecircumflex" unicode="&#xea;" horiz-adv-x="625" 
d="M582 213h-351c1 -86 18 -106 102 -106c27 0 45 3 54 5v50h186v-147c-22 -6 -107 -22 -242 -22c-214 0 -296 43 -296 253c0 217 93 254 283 254c213 0 264 -36 264 -224v-63zM394 303c-3 70 -11 81 -79 81c-62 0 -73 -11 -84 -81h163zM526 627l-56 -103l-158 78l-157 -78
l-58 101l215 154z" />
    <glyph glyph-name="edieresis" unicode="&#xeb;" horiz-adv-x="625" 
d="M582 213h-351c1 -86 18 -106 102 -106c27 0 45 3 54 5v50h186v-147c-22 -6 -107 -22 -242 -22c-214 0 -296 43 -296 253c0 217 93 254 283 254c213 0 264 -36 264 -224v-63zM394 303c-3 70 -11 81 -79 81c-62 0 -73 -11 -84 -81h163zM520 536h-182v161h182v-161zM286 536
h-182v161h182v-161z" />
    <glyph glyph-name="iacute" unicode="&#xed;" horiz-adv-x="386" 
d="M363 0h-326v144h70v193h-70v148h266v-341h60v-144zM375 700l-236 -175l-84 84l192 219z" />
    <glyph glyph-name="igrave" unicode="&#xec;" horiz-adv-x="386" 
d="M363 0h-326v144h70v193h-70v148h266v-341h60v-144zM332 609l-84 -84l-236 175l128 128z" />
    <glyph glyph-name="icircumflex" unicode="&#xee;" horiz-adv-x="386" 
d="M363 0h-326v144h70v193h-70v148h266v-341h60v-144zM407 627l-56 -103l-158 78l-157 -78l-58 101l215 154z" />
    <glyph glyph-name="idieresis" unicode="&#xef;" horiz-adv-x="386" 
d="M363 0h-326v144h70v193h-70v148h266v-341h60v-144zM401 536h-182v161h182v-161zM167 536h-182v161h182v-161z" />
    <glyph glyph-name="ntilde" unicode="&#xf1;" horiz-adv-x="708" 
d="M685 0h-251v60v81v171c0 27 -14 34 -54 34c-37 0 -79 -8 -92 -11v-191h65v-144h-316v144h55v193h-55v148h231l15 -47c33 19 134 58 209 58c91 0 138 -36 138 -120v-232h55v-144zM595 626c-37 -31 -117 -97 -165 -97s-118 48 -146 48c-19 0 -54 -29 -85 -55l-86 109
c37 32 117 97 165 97s118 -48 146 -48c19 0 54 29 85 55z" />
    <glyph glyph-name="oacute" unicode="&#xf3;" horiz-adv-x="654" 
d="M619 248c0 -205 -76 -255 -293 -255s-291 48 -291 253s76 255 293 255s291 -48 291 -253zM422 246c0 94 -10 127 -96 127s-94 -31 -94 -125s10 -131 96 -131s94 35 94 129zM509 700l-236 -175l-84 84l192 219z" />
    <glyph glyph-name="ograve" unicode="&#xf2;" horiz-adv-x="654" 
d="M619 248c0 -205 -76 -255 -293 -255s-291 48 -291 253s76 255 293 255s291 -48 291 -253zM422 246c0 94 -10 127 -96 127s-94 -31 -94 -125s10 -131 96 -131s94 35 94 129zM466 609l-84 -84l-236 175l128 128z" />
    <glyph glyph-name="ocircumflex" unicode="&#xf4;" horiz-adv-x="654" 
d="M619 248c0 -205 -76 -255 -293 -255s-291 48 -291 253s76 255 293 255s291 -48 291 -253zM422 246c0 94 -10 127 -96 127s-94 -31 -94 -125s10 -131 96 -131s94 35 94 129zM541 627l-56 -103l-158 78l-157 -78l-58 101l215 154z" />
    <glyph glyph-name="odieresis" unicode="&#xf6;" horiz-adv-x="654" 
d="M619 248c0 -205 -76 -255 -293 -255s-291 48 -291 253s76 255 293 255s291 -48 291 -253zM422 246c0 94 -10 127 -96 127s-94 -31 -94 -125s10 -131 96 -131s94 35 94 129zM535 536h-182v161h182v-161zM301 536h-182v161h182v-161z" />
    <glyph glyph-name="otilde" unicode="&#xf5;" horiz-adv-x="654" 
d="M619 248c0 -205 -76 -255 -293 -255s-291 48 -291 253s76 255 293 255s291 -48 291 -253zM422 246c0 94 -10 127 -96 127s-94 -31 -94 -125s10 -131 96 -131s94 35 94 129zM568 626c-37 -31 -117 -97 -165 -97s-118 48 -146 48c-19 0 -54 -29 -85 -55l-86 109
c37 32 117 97 165 97s118 -48 146 -48c19 0 54 29 85 55z" />
    <glyph glyph-name="uacute" unicode="&#xfa;" horiz-adv-x="698" 
d="M675 0h-235l-15 47c-33 -19 -134 -58 -209 -58c-91 0 -138 36 -138 120v228h-55v148h251v-312c0 -27 14 -34 54 -34c37 0 79 8 92 11v187h-65v148h261v-341h59v-144zM531 700l-236 -175l-84 84l192 219z" />
    <glyph glyph-name="ugrave" unicode="&#xf9;" horiz-adv-x="698" 
d="M675 0h-235l-15 47c-33 -19 -134 -58 -209 -58c-91 0 -138 36 -138 120v228h-55v148h251v-312c0 -27 14 -34 54 -34c37 0 79 8 92 11v187h-65v148h261v-341h59v-144zM488 609l-84 -84l-236 175l128 128z" />
    <glyph glyph-name="ucircumflex" unicode="&#xfb;" horiz-adv-x="698" 
d="M675 0h-235l-15 47c-33 -19 -134 -58 -209 -58c-91 0 -138 36 -138 120v228h-55v148h251v-312c0 -27 14 -34 54 -34c37 0 79 8 92 11v187h-65v148h261v-341h59v-144zM563 627l-56 -103l-158 78l-157 -78l-58 101l215 154z" />
    <glyph glyph-name="udieresis" unicode="&#xfc;" horiz-adv-x="698" 
d="M675 0h-235l-15 47c-33 -19 -134 -58 -209 -58c-91 0 -138 36 -138 120v228h-55v148h251v-312c0 -27 14 -34 54 -34c37 0 79 8 92 11v187h-65v148h261v-341h59v-144zM537 536h-182v161h182v-161zM303 536h-182v161h182v-161z" />
    <glyph glyph-name="dagger" unicode="&#x2020;" horiz-adv-x="570" 
d="M533 377h-176v-512h-144v512h-176v136h176v87h-76v136h296v-136h-76v-87h176v-136z" />
    <glyph glyph-name="degree" unicode="&#xb0;" horiz-adv-x="532" 
d="M498 541c0 -142 -65 -210 -233 -210s-231 66 -231 208s65 210 233 210s231 -66 231 -208zM343 539c0 85 -16 103 -78 103s-76 -16 -76 -101s16 -103 78 -103s76 16 76 101z" />
    <glyph glyph-name="cent" unicode="&#xa2;" horiz-adv-x="668" 
d="M573 145c-39 -8 -95 -18 -179 -21v-124h-157v127c-144 14 -202 71 -202 249c0 177 59 236 202 251v119h157v-116c83 -3 136 -13 179 -24v-193h-186v85c-12 3 -27 5 -55 5c-92 0 -100 -27 -100 -125c0 -97 10 -131 102 -131c17 0 34 1 53 5v99h186v-206z" />
    <glyph glyph-name="sterling" unicode="&#xa3;" horiz-adv-x="734" 
d="M677 0h-640v139h130c-14 51 -30 107 -44 158h-86v135h53c-6 29 -15 74 -15 102c0 153 60 215 299 215c97 0 229 -12 303 -30v-209h-195v76c-21 3 -68 6 -108 6c-78 0 -93 -16 -93 -74c0 -23 5 -57 11 -86h144v-135h-112c12 -49 27 -104 42 -158h116v96h195v-235z" />
    <glyph glyph-name="section" unicode="&#xa7;" horiz-adv-x="672" 
d="M612 415c0 -44 -32 -109 -55 -142c35 -25 42 -65 42 -125c0 -106 -67 -151 -259 -151c-109 0 -207 11 -254 27v134h181v-53c14 -3 37 -5 60 -5c77 0 87 6 87 36c0 37 -8 39 -114 43c-207 8 -240 57 -240 149c0 56 39 119 55 141c-35 26 -42 66 -42 126
c0 106 67 151 259 151c109 0 207 -11 254 -27v-134h-181v49c-14 3 -37 5 -60 5c-77 0 -87 -4 -87 -34c0 -37 8 -37 114 -41c213 -8 240 -57 240 -149zM438 382c0 22 -10 31 -109 35c-27 1 -52 3 -74 5c-15 -30 -21 -45 -21 -61c0 -22 12 -31 109 -35c27 -1 52 -3 74 -5
c11 20 21 43 21 61z" />
    <glyph glyph-name="bullet" unicode="&#x2022;" horiz-adv-x="524" 
d="M463 284c0 -163 -61 -210 -200 -210s-202 49 -202 212s61 210 200 210s202 -49 202 -212z" />
    <glyph glyph-name="paragraph" unicode="&#xb6;" horiz-adv-x="749" 
d="M712 0h-254v256h-64v-256h-274v154h97v107c-9 0 -19 1 -25 2c-71 12 -155 49 -155 224c0 212 115 249 281 249h394v-158h-67v-424h67v-154zM458 391v190h-158c-45 0 -76 -22 -76 -96c0 -78 29 -94 74 -94h160z" />
    <glyph glyph-name="germandbls" unicode="&#xdf;" horiz-adv-x="746" 
d="M724 233c0 -73 -9 -124 -45 -152c-55 -43 -142 -65 -307 -87l-20 145c98 12 148 24 172 47c16 15 15 29 15 48c0 20 1 33 -15 48c-24 23 -76 34 -150 45v118c42 63 65 92 65 136c0 39 -14 43 -91 43c-30 0 -45 -6 -45 -42v-582h-266v144h70v195h-70v146h70v107
c0 133 62 169 247 169c194 0 272 -26 272 -178c0 -66 -31 -99 -108 -149c64 -11 137 -38 172 -83c22 -28 34 -66 34 -118z" />
    <glyph glyph-name="registered" unicode="&#xae;" horiz-adv-x="920" 
d="M885 367c0 -300 -108 -379 -425 -379s-425 79 -425 379s108 381 425 381s425 -81 425 -381zM782 368c0 273 -87 294 -322 294s-322 -21 -322 -294s87 -294 322 -294s322 21 322 294zM687 153h-185v62v27l-42 53h-44v-39h32v-103h-207v103h30v221h-30v103h253
c121 0 181 -27 181 -154c0 -77 -29 -102 -74 -118l47 -52h39v-103zM518 426c0 50 -5 52 -35 52h-67v-105h60c36 0 42 3 42 53z" />
    <glyph glyph-name="copyright" unicode="&#xa9;" horiz-adv-x="920" 
d="M885 367c0 -300 -108 -379 -425 -379s-425 79 -425 379s108 381 425 381s425 -81 425 -381zM782 368c0 273 -87 294 -322 294s-322 -21 -322 -294s87 -294 322 -294s322 21 322 294zM665 152c-45 -10 -110 -21 -201 -21c-190 0 -244 40 -244 238c0 191 54 230 244 230
c89 0 161 -6 201 -15v-160h-154v64c-18 3 -27 4 -47 4c-71 0 -81 -16 -81 -109v-30c0 -92 10 -112 81 -112c18 0 27 1 47 4v66h154v-159z" />
    <glyph glyph-name="trademark" unicode="&#x2122;" horiz-adv-x="1218" 
d="M1180 290h-228v92h53v251c-2 -18 -19 -65 -26 -85l-55 -153h-116l-58 158c-8 21 -21 64 -24 80v-251h53v-92h-204v97h53v252h-53v97h239l51 -156c8 -24 12 -39 15 -59c3 19 9 36 16 58l49 157h235v-97h-53v-252h53v-97zM541 540h-123v109h-62v-262h53v-97h-239v97h53v262
h-62v-109h-123v196h503v-196z" />
    <glyph glyph-name="acute" unicode="&#xb4;" horiz-adv-x="499" 
d="M431 700l-236 -175l-84 84l192 219z" />
    <glyph glyph-name="dieresis" unicode="&#xa8;" horiz-adv-x="500" 
d="M458 536h-182v161h182v-161zM224 536h-182v161h182v-161z" />
    <glyph glyph-name="notequal" unicode="&#x2260;" horiz-adv-x="779" 
d="M756 615c-105 -26 -111 -36 -111 -92v-38h104v-148h-104v-193h104v-144h-300v80v62v197h-146v-195h65v-144h-331v144h70v193h-70v148h70v48c0 127 33 165 267 211l40 -149c-105 -26 -111 -36 -111 -92v-18h146v68c0 127 34 165 267 211z" />
    <glyph glyph-name="AE" unicode="&#xc6;" horiz-adv-x="1233" 
d="M1176 0h-674v144h60v78h-229l-46 -78h106v-144h-358v154h63l265 426h-84v156h897v-269h-195v121h-222v-149h154v-139h-154v-156h222v139h195v-283zM562 346v261l-153 -261h153z" />
    <glyph glyph-name="Oslash" unicode="&#xd8;" horiz-adv-x="832" 
d="M797 370c0 -323 -150 -382 -382 -382c-71 0 -134 5 -187 22l-65 -93l-91 64l58 83c-61 56 -95 149 -95 304c0 323 150 380 382 380c67 0 127 -5 178 -19l68 97l91 -64l-58 -83c65 -55 101 -149 101 -309zM503 580c-23 10 -52 14 -88 14c-130 0 -166 -54 -166 -195v-58
c0 -42 3 -78 12 -106zM583 339v58c0 47 -4 84 -15 113l-248 -353c24 -13 56 -19 97 -19c130 0 166 60 166 201z" />
    <glyph glyph-name="infinity" unicode="&#x221e;" horiz-adv-x="1065" 
d="M1042 0h-251v74v67v198h-146v-195h65v-144h-261v76v60v203h-146v-195h65v-144h-331v144h70v193h-70v148h70v48c0 127 33 165 267 211l40 -149c-105 -26 -111 -36 -111 -92v-18h146v63c0 128 58 157 356 216l34 -150c-186 -45 -194 -53 -194 -96v-33h342v-341h55v-144z
" />
    <glyph glyph-name="plusminus" unicode="&#xb1;" horiz-adv-x="1065" 
d="M736 615c-87 -21 -91 -36 -91 -92v-38h74v-148h-74v-193h65v-144h-261v90v56v193h-146v-195h65v-144h-331v144h70v193h-70v148h70v48c0 127 33 165 267 211l40 -149c-105 -26 -111 -36 -111 -92v-18h146v68c0 127 35 169 247 211zM1042 0h-251v102v38v471h-30v150h226
v-617h55v-144z" />
    <glyph glyph-name="lessequal" unicode="&#x2264;" horiz-adv-x="685" 
d="M648 0h-231l-15 47c-32 -16 -120 -58 -205 -58c-120 0 -161 72 -161 254s46 253 166 253c85 0 169 -29 200 -41l15 30h231v-148h-55v-193h55v-144zM397 150v201c-24 3 -48 7 -106 7c-37 0 -57 -28 -57 -113c0 -88 16 -106 57 -106c55 0 76 5 106 11z" />
    <glyph glyph-name="greaterequal" unicode="&#x2265;" 
d="M732 0h-181v90c0 126 -29 158 -128 164v-100h-74v100c-101 -3 -130 -30 -130 -162v-92h-185v66h108v30c0 177 83 222 207 229v75h-250v194h74v-128h176v67h-56v192h186v-192h-56v-67h170v128h74v-194h-244v-75c124 -6 205 -47 205 -227v-32h104v-66z" />
    <glyph glyph-name="yen" unicode="&#xa5;" horiz-adv-x="876" 
d="M847 578h-62s-39 -50 -83 -106h106v-115h-195c-21 -27 -36 -45 -36 -45h231v-115h-271v-43h94v-154h-391v154h94v43h-266v115h223l-34 45h-189v115h103l-80 106h-62v158h374v-148h-98l39 -53c47 -63 74 -105 113 -164c35 53 67 101 117 164l42 53h-104v148h335v-158z" />
    <glyph glyph-name="mu" unicode="&#x3bc;" horiz-adv-x="680" 
d="M651 337h-53v-329c0 -124 -38 -208 -259 -208c-114 0 -223 10 -265 16v149h191v-41c26 -4 59 -4 82 -4c41 0 55 25 55 75v60c-32 -16 -120 -56 -205 -56c-120 0 -161 67 -161 249s46 248 166 248c85 0 174 -29 205 -41l15 30h229v-148zM402 150v201c-24 3 -53 7 -111 7
c-37 0 -57 -23 -57 -108c0 -88 16 -111 57 -111c55 0 81 5 111 11z" />
    <glyph glyph-name="partialdiff" unicode="&#x2202;" 
d="M732 0h-181v90c0 126 -29 158 -128 164v-100h-74v100c-101 -3 -130 -30 -130 -162v-92h-185v66h108v30c0 177 83 222 207 229v75h-250v194h74v-128h176v67h-56v192h186v-192h-56v-67h170v128h74v-194h-244v-75c124 -6 205 -47 205 -227v-32h104v-66z" />
    <glyph glyph-name="summation" unicode="&#x2211;" 
d="M732 0h-181v90c0 126 -29 158 -128 164v-100h-74v100c-101 -3 -130 -30 -130 -162v-92h-185v66h108v30c0 177 83 222 207 229v75h-250v194h74v-128h176v67h-56v192h186v-192h-56v-67h170v128h74v-194h-244v-75c124 -6 205 -47 205 -227v-32h104v-66z" />
    <glyph glyph-name="product" unicode="&#x220f;" 
d="M732 0h-181v90c0 126 -29 158 -128 164v-100h-74v100c-101 -3 -130 -30 -130 -162v-92h-185v66h108v30c0 177 83 222 207 229v75h-250v194h74v-128h176v67h-56v192h186v-192h-56v-67h170v128h74v-194h-244v-75c124 -6 205 -47 205 -227v-32h104v-66z" />
    <glyph glyph-name="pi" unicode="&#x3c0;" horiz-adv-x="920" 
d="M885 367c0 -300 -108 -379 -425 -379s-425 79 -425 379s108 381 425 381s425 -81 425 -381zM782 368c0 273 -87 294 -322 294s-322 -21 -322 -294s87 -294 322 -294s322 21 322 294zM715 433c0 -114 -66 -138 -191 -138h-82v-41h54v-108h-238v108h32v233h-32v108h266
c128 0 191 -28 191 -162zM550 433c0 53 -2 55 -37 55h-71v-111h63c42 0 45 3 45 56z" />
    <glyph glyph-name="integral" unicode="&#x222b;" 
d="M732 0h-181v90c0 126 -29 158 -128 164v-100h-74v100c-101 -3 -130 -30 -130 -162v-92h-185v66h108v30c0 177 83 222 207 229v75h-250v194h74v-128h176v67h-56v192h186v-192h-56v-67h170v128h74v-194h-244v-75c124 -6 205 -47 205 -227v-32h104v-66z" />
    <glyph glyph-name="ordfeminine" unicode="&#xaa;" horiz-adv-x="537" 
d="M508 342h-186l-12 38c-33 -15 -99 -44 -168 -44c-64 0 -108 47 -108 136c0 33 5 75 32 93c34 22 104 26 240 26v40c0 17 -4 24 -43 24c-12 0 -32 0 -51 -2v-42h-149v128c43 7 133 13 200 13c157 0 205 -45 205 -131v-158h40v-121zM468 187h-405v106h405v-106zM306 449v69
c-54 0 -76 -3 -94 -6c-15 -3 -15 -15 -15 -33c0 -28 6 -38 33 -38c24 0 58 4 76 8z" />
    <glyph glyph-name="ordmasculine" unicode="&#xba;" horiz-adv-x="550" 
d="M512 541c0 -164 -64 -209 -238 -209c-173 0 -236 43 -236 207s64 209 238 209c173 0 236 -43 236 -207zM478 187h-406v106h406v-106zM348 539c0 75 -5 102 -74 102s-72 -25 -72 -100s5 -104 74 -104s72 27 72 102z" />
    <glyph glyph-name="Omega" unicode="&#x3a9;" 
d="M732 0h-181v90c0 126 -29 158 -128 164v-100h-74v100c-101 -3 -130 -30 -130 -162v-92h-185v66h108v30c0 177 83 222 207 229v75h-250v194h74v-128h176v67h-56v192h186v-192h-56v-67h170v128h74v-194h-244v-75c124 -6 205 -47 205 -227v-32h104v-66z" />
    <glyph glyph-name="ae" unicode="&#xe6;" horiz-adv-x="956" 
d="M913 213h-351c1 -86 18 -106 102 -106c27 0 45 3 54 5v50h186v-147c-22 -6 -107 -22 -242 -22c-133 0 -204 15 -249 68c-88 -43 -177 -68 -252 -68c-79 0 -134 53 -134 164c0 41 6 90 37 108c47 27 147 38 302 38v52c0 22 -5 30 -53 30c-15 0 -40 0 -64 -2v-46h-186v147
c54 9 166 17 250 17c76 0 130 -14 170 -41c44 30 99 40 166 40c213 0 264 -36 264 -224v-63zM725 303c-3 70 -11 81 -79 81c-62 0 -73 -11 -84 -81h163zM378 129c-6 23 -10 56 -11 88c-72 0 -96 -2 -124 -8c-14 -3 -20 -23 -20 -45c0 -35 11 -48 45 -48c46 0 72 4 110 13z
" />
    <glyph glyph-name="oslash" unicode="&#xf8;" horiz-adv-x="654" 
d="M620 508c0 0 -55 -65 -55 -66c38 -38 54 -99 54 -194c0 -205 -76 -255 -293 -255c-51 0 -94 3 -130 9l-72 -85l-86 72s52 62 52 61c-39 39 -55 100 -55 196c0 205 76 255 293 255c52 0 95 -3 131 -10c1 0 75 89 75 89zM371 371c-12 3 -27 4 -45 4c-88 0 -96 -31 -96 -127
c0 -17 0 -32 1 -45zM424 246c0 16 0 30 -1 42c0 0 -140 -168 -141 -168c13 -3 28 -5 46 -5c88 0 96 35 96 131z" />
    <glyph glyph-name="questiondown" unicode="&#xbf;" horiz-adv-x="728" 
d="M505 546h-237v190h237v-190zM661 19c-49 -13 -159 -32 -296 -32c-267 0 -329 48 -329 200c0 113 30 142 255 247v71h187v-132c-235 -116 -235 -104 -235 -184c0 -37 24 -53 122 -53c46 0 80 6 101 11v136h195v-264z" />
    <glyph glyph-name="exclamdown" unicode="&#xa1;" horiz-adv-x="389" 
d="M313 546h-237v190h237v-190zM323 0h-257l45 505h167z" />
    <glyph glyph-name="logicalnot" unicode="&#xac;" 
d="M732 0h-181v90c0 126 -29 158 -128 164v-100h-74v100c-101 -3 -130 -30 -130 -162v-92h-185v66h108v30c0 177 83 222 207 229v75h-250v194h74v-128h176v67h-56v192h186v-192h-56v-67h170v128h74v-194h-244v-75c124 -6 205 -47 205 -227v-32h104v-66z" />
    <glyph glyph-name="radical" unicode="&#x221a;" horiz-adv-x="762" 
d="M723 693l-304 -697h-200l-121 273h-71v126l191 1l105 -246l248 600z" />
    <glyph glyph-name="florin" unicode="&#x192;" horiz-adv-x="526" 
d="M489 625c-110 -17 -118 -25 -128 -81l-21 -119h113v-146h-139l-85 -479l-189 34l79 445h-51v146h77l29 166c22 125 70 160 301 184z" />
    <glyph glyph-name="approxequal" unicode="&#x2248;" 
d="M732 0h-181v90c0 126 -29 158 -128 164v-100h-74v100c-101 -3 -130 -30 -130 -162v-92h-185v66h108v30c0 177 83 222 207 229v75h-250v194h74v-128h176v67h-56v192h186v-192h-56v-67h170v128h74v-194h-244v-75c124 -6 205 -47 205 -227v-32h104v-66z" />
    <glyph glyph-name="Delta" unicode="&#x394;" horiz-adv-x="700" 
d="M645 12c0 -127 -32 -165 -267 -211l-40 149c105 26 111 36 111 92v297h-146v-195h55v-144h-321v144h70v193h-70v148h70v63c0 128 59 157 357 216l34 -150c-186 -45 -195 -53 -195 -96v-33h342v-473z" />
    <glyph glyph-name="guillemotleft" unicode="&#xab;" horiz-adv-x="654" 
d="M575 35l-117 -58l-156 252l156 254l117 -58l-106 -196zM335 35l-117 -58l-156 252l156 254l117 -58l-106 -196z" />
    <glyph glyph-name="guillemotright" unicode="&#xbb;" horiz-adv-x="654" 
d="M592 229l-156 -252l-117 58l106 194l-106 196l117 58zM352 229l-156 -252l-117 58l106 194l-106 196l117 58z" />
    <glyph glyph-name="ellipsis" unicode="&#x2026;" horiz-adv-x="1167" 
d="M1091 0h-237v190h237v-190zM702 0h-237v190h237v-190zM313 0h-237v190h237v-190z" />
    <glyph glyph-name="nbspace" unicode="&#xa0;" horiz-adv-x="1000" 
 />
    <glyph glyph-name="Agrave" unicode="&#xc0;" horiz-adv-x="903" 
d="M874 0h-392v144h110l-31 78h-258l-32 -78h102v-144h-344v154h67l238 587h230l240 -587h70v-154zM519 336l-17 43c-20 50 -56 150 -69 185c-13 -36 -52 -140 -70 -185l-17 -43h173zM590 875l-84 -84l-236 175l128 128z" />
    <glyph glyph-name="Atilde" unicode="&#xc3;" horiz-adv-x="903" 
d="M874 0h-392v144h110l-31 78h-258l-32 -78h102v-144h-344v154h67l238 587h230l240 -587h70v-154zM519 336l-17 43c-20 50 -56 150 -69 185c-13 -36 -52 -140 -70 -185l-17 -43h173zM692 892c-37 -31 -117 -97 -165 -97s-118 48 -146 48c-19 0 -54 -29 -85 -55l-86 109
c37 32 117 97 165 97s118 -48 146 -48c19 0 54 29 85 55z" />
    <glyph glyph-name="Otilde" unicode="&#xd5;" horiz-adv-x="832" 
d="M797 370c0 -323 -150 -382 -382 -382s-380 57 -380 380s150 380 382 380s380 -55 380 -378zM581 339v58c0 139 -37 195 -166 195s-164 -54 -164 -193v-58c0 -139 37 -201 166 -201s164 60 164 199zM657 892c-37 -31 -117 -97 -165 -97s-118 48 -146 48
c-19 0 -54 -29 -85 -55l-86 109c37 32 117 97 165 97s118 -48 146 -48c19 0 54 29 85 55z" />
    <glyph glyph-name="OE" unicode="&#x152;" horiz-adv-x="1180" 
d="M1123 0h-717c-251 0 -371 40 -371 367s120 369 371 369h717v-269h-195v121h-222v-149h154v-139h-154v-156h222v139h195v-283zM509 151v429h-102c-132 0 -160 -56 -160 -189v-48c0 -133 28 -192 160 -192h102z" />
    <glyph glyph-name="oe" unicode="&#x153;" horiz-adv-x="998" 
d="M955 213h-351c1 -86 18 -106 102 -106c27 0 45 3 54 5v50h186v-147c-22 -6 -107 -22 -242 -22c-107 0 -159 18 -197 53c-38 -35 -99 -53 -196 -53c-217 0 -291 48 -291 253s76 255 293 255c97 0 158 -18 195 -53c38 35 96 52 183 52c213 0 264 -36 264 -224v-63zM767 303
c-3 70 -11 81 -79 81c-62 0 -73 -11 -84 -81h163zM407 246c0 94 -10 127 -96 127s-94 -31 -94 -125s10 -131 96 -131s94 35 94 129z" />
    <glyph glyph-name="endash" unicode="&#x2013;" horiz-adv-x="540" 
d="M498 222h-456v142h456v-142z" />
    <glyph glyph-name="emdash" unicode="&#x2014;" horiz-adv-x="830" 
d="M788 222h-746v142h746v-142z" />
    <glyph glyph-name="quotedblleft" unicode="&#x201c;" horiz-adv-x="655" 
d="M585 494l-90 -45l-158 274l180 104zM335 494l-90 -45l-158 274l180 104z" />
    <glyph glyph-name="quotedblright" unicode="&#x201d;" horiz-adv-x="654" 
d="M567 723l-158 -274l-90 45l68 333zM317 723l-158 -274l-90 45l68 333z" />
    <glyph glyph-name="quoteleft" unicode="&#x2018;" horiz-adv-x="405" 
d="M335 494l-90 -45l-158 274l180 104z" />
    <glyph glyph-name="quoteright" unicode="&#x2019;" horiz-adv-x="404" 
d="M317 723l-158 -274l-90 45l68 333z" />
    <glyph glyph-name="divide" unicode="&#xf7;" 
d="M732 0h-181v90c0 126 -29 158 -128 164v-100h-74v100c-101 -3 -130 -30 -130 -162v-92h-185v66h108v30c0 177 83 222 207 229v75h-250v194h74v-128h176v67h-56v192h186v-192h-56v-67h170v128h74v-194h-244v-75c124 -6 205 -47 205 -227v-32h104v-66z" />
    <glyph glyph-name="lozenge" unicode="&#x25ca;" horiz-adv-x="807" 
d="M773 5c-23 -4 -102 -10 -155 -10c-128 0 -169 38 -169 159v185h-146v-195h74v-144h-340v144h70v193h-70v148h70v68c0 127 33 165 267 211l40 -149c-105 -26 -111 -36 -111 -92v-38h146v144l196 20v-164h115v-148h-115v-135c0 -54 18 -67 55 -67c12 0 39 2 65 5z" />
    <glyph glyph-name="ydieresis" unicode="&#xff;" horiz-adv-x="729" 
d="M706 337h-44l-236 -400h69v-137h-350v137h115l30 51l-215 349h-52v148h332v-138h-71l46 -77c28 -47 49 -94 63 -125c14 31 35 77 62 125l44 77h-65v138h272v-148zM602 536h-182v161h182v-161zM368 536h-182v161h182v-161z" />
    <glyph glyph-name="Ydieresis" unicode="&#x178;" horiz-adv-x="876" 
d="M847 578h-62l-246 -320v-104h92v-154h-391v154h92v99l-241 325h-62v158h374v-148h-87l36 -49c43 -59 69 -97 105 -152c32 49 62 94 108 152l39 49h-92v148h335v-158zM665 802h-182v161h182v-161zM431 802h-182v161h182v-161z" />
    <glyph glyph-name="fraction" unicode="&#x2044;" horiz-adv-x="425" 
d="M425 705l-270 -737l-155 56l270 737z" />
    <glyph glyph-name="currency" unicode="&#xa4;" horiz-adv-x="769" 
d="M712 21c-36 -10 -174 -30 -296 -30c-169 0 -287 48 -324 233h-64v115h52v29v26h-52v115h64c38 187 159 236 326 236c122 0 258 -20 294 -30v-205h-195v70c-23 3 -62 6 -101 6c-80 0 -112 -25 -125 -77h136v-115h-144v-55h144v-115h-134c14 -49 47 -78 125 -78
c41 0 76 2 99 6v83h195v-214z" />
    <glyph glyph-name="guilsinglleft" unicode="&#x2039;" horiz-adv-x="414" 
d="M335 35l-117 -58l-156 252l156 254l117 -58l-106 -196z" />
    <glyph glyph-name="guilsinglright" unicode="&#x203a;" horiz-adv-x="414" 
d="M352 229l-156 -252l-117 58l106 194l-106 196l117 58z" />
    <glyph glyph-name="fi" unicode="&#xfb01;" horiz-adv-x="724" 
d="M701 0h-251v79v56v204h-146v-195h65v-144h-332v144h71v193h-71v148h71v63c0 128 58 157 356 216l34 -150c-186 -45 -194 -53 -194 -96v-33h342v-341h55v-144z" />
    <glyph glyph-name="fl" unicode="&#xfb02;" horiz-adv-x="723" 
d="M700 0h-251v94v62v459h-30v146h226v-617h55v-144zM394 605c-87 -21 -91 -36 -91 -92v-28h74v-148h-74v-193h65v-144h-331v144h70v193h-70v148h70v58c0 127 35 169 247 211z" />
    <glyph glyph-name="daggerdbl" unicode="&#x2021;" horiz-adv-x="570" 
d="M533 89h-176v-87h76v-136h-296v136h76v87h-176v136h176v152h-176v136h176v87h-76v136h296v-136h-76v-87h176v-136h-176v-152h176v-136z" />
    <glyph glyph-name="periodcentered" unicode="&#xb7;" horiz-adv-x="389" 
d="M313 256h-237v190h237v-190z" />
    <glyph glyph-name="quotesinglbase" unicode="&#x201a;" horiz-adv-x="404" 
d="M317 132l-158 -274l-90 45l68 333z" />
    <glyph glyph-name="quotedblbase" unicode="&#x201e;" horiz-adv-x="654" 
d="M567 132l-158 -274l-90 45l68 333zM317 132l-158 -274l-90 45l68 333z" />
    <glyph glyph-name="perthousand" unicode="&#x2030;" horiz-adv-x="1854" 
d="M531 498c0 -208 -86 -251 -249 -251s-247 41 -247 249s86 251 249 251s247 -41 247 -249zM868 705l-270 -737l-155 56l270 737zM1819 238c0 -208 -86 -251 -249 -251s-247 41 -247 249s86 251 249 251s247 -41 247 -249zM1278 238c0 -208 -86 -251 -249 -251
s-247 41 -247 249s86 251 249 251s247 -41 247 -249zM358 478v36c0 92 -14 108 -76 108s-74 -14 -74 -106v-36c0 -92 14 -112 76 -112s74 18 74 110zM1646 218v36c0 92 -14 108 -76 108s-74 -14 -74 -106v-36c0 -92 14 -112 76 -112s74 18 74 110zM1105 218v36
c0 92 -14 108 -76 108s-74 -14 -74 -106v-36c0 -92 14 -112 76 -112s74 18 74 110z" />
    <glyph glyph-name="Acircumflex" unicode="&#xc2;" horiz-adv-x="903" 
d="M874 0h-392v144h110l-31 78h-258l-32 -78h102v-144h-344v154h67l238 587h230l240 -587h70v-154zM519 336l-17 43c-20 50 -56 150 -69 185c-13 -36 -52 -140 -70 -185l-17 -43h173zM665 883l-56 -103l-158 78l-157 -78l-58 101l215 154z" />
    <glyph glyph-name="Ecircumflex" unicode="&#xca;" horiz-adv-x="785" 
d="M728 0h-691v154h67v424h-67v158h691v-269h-195v121h-222v-149h154v-139h-154v-156h222v139h195v-283zM606 893l-56 -103l-158 78l-157 -78l-58 101l215 154z" />
    <glyph glyph-name="Aacute" unicode="&#xc1;" horiz-adv-x="903" 
d="M874 0h-392v144h110l-31 78h-258l-32 -78h102v-144h-344v154h67l238 587h230l240 -587h70v-154zM519 336l-17 43c-20 50 -56 150 -69 185c-13 -36 -52 -140 -70 -185l-17 -43h173zM633 966l-236 -175l-84 84l192 219z" />
    <glyph glyph-name="Edieresis" unicode="&#xcb;" horiz-adv-x="785" 
d="M728 0h-691v154h67v424h-67v158h691v-269h-195v121h-222v-149h154v-139h-154v-156h222v139h195v-283zM600 802h-182v161h182v-161zM366 802h-182v161h182v-161z" />
    <glyph glyph-name="Egrave" unicode="&#xc8;" horiz-adv-x="785" 
d="M728 0h-691v154h67v424h-67v158h691v-269h-195v121h-222v-149h154v-139h-154v-156h222v139h195v-283zM531 875l-84 -84l-236 175l128 128z" />
    <glyph glyph-name="Iacute" unicode="&#xcd;" horiz-adv-x="439" 
d="M402 0h-365v154h79v424h-79v158h365v-158h-79v-424h79v-154zM401 966l-236 -175l-84 84l192 219z" />
    <glyph glyph-name="Icircumflex" unicode="&#xce;" horiz-adv-x="439" 
d="M402 0h-365v154h79v424h-79v158h365v-158h-79v-424h79v-154zM433 893l-56 -103l-158 78l-157 -78l-58 101l215 154z" />
    <glyph glyph-name="Idieresis" unicode="&#xcf;" horiz-adv-x="439" 
d="M402 0h-365v154h79v424h-79v158h365v-158h-79v-424h79v-154zM427 802h-182v161h182v-161zM193 802h-182v161h182v-161z" />
    <glyph glyph-name="Igrave" unicode="&#xcc;" horiz-adv-x="439" 
d="M402 0h-365v154h79v424h-79v158h365v-158h-79v-424h79v-154zM358 875l-84 -84l-236 175l128 128z" />
    <glyph glyph-name="Oacute" unicode="&#xd3;" horiz-adv-x="832" 
d="M797 370c0 -323 -150 -382 -382 -382s-380 57 -380 380s150 380 382 380s380 -55 380 -378zM581 339v58c0 139 -37 195 -166 195s-164 -54 -164 -193v-58c0 -139 37 -201 166 -201s164 60 164 199zM598 966l-236 -175l-84 84l192 219z" />
    <glyph glyph-name="Ocircumflex" unicode="&#xd4;" horiz-adv-x="832" 
d="M797 370c0 -323 -150 -382 -382 -382s-380 57 -380 380s150 380 382 380s380 -55 380 -378zM581 339v58c0 139 -37 195 -166 195s-164 -54 -164 -193v-58c0 -139 37 -201 166 -201s164 60 164 199zM630 893l-56 -103l-158 78l-157 -78l-58 101l215 154z" />
    <glyph glyph-name="apple" 
d="M732 0h-181v90c0 126 -29 158 -128 164v-100h-74v100c-101 -3 -130 -30 -130 -162v-92h-185v66h108v30c0 177 83 222 207 229v75h-250v194h74v-128h176v67h-56v192h186v-192h-56v-67h170v128h74v-194h-244v-75c124 -6 205 -47 205 -227v-32h104v-66z" />
    <glyph glyph-name="Ograve" unicode="&#xd2;" horiz-adv-x="832" 
d="M797 370c0 -323 -150 -382 -382 -382s-380 57 -380 380s150 380 382 380s380 -55 380 -378zM581 339v58c0 139 -37 195 -166 195s-164 -54 -164 -193v-58c0 -139 37 -201 166 -201s164 60 164 199zM555 875l-84 -84l-236 175l128 128z" />
    <glyph glyph-name="Uacute" unicode="&#xda;" horiz-adv-x="888" 
d="M851 578h-64v-318c0 -216 -101 -270 -339 -270s-347 49 -347 268v320h-64v158h360v-158h-89v-319c0 -94 49 -105 142 -105s140 6 140 103v321h-85v158h346v-158zM626 966l-236 -175l-84 84l192 219z" />
    <glyph glyph-name="Ucircumflex" unicode="&#xdb;" horiz-adv-x="888" 
d="M851 578h-64v-318c0 -216 -101 -270 -339 -270s-347 49 -347 268v320h-64v158h360v-158h-89v-319c0 -94 49 -105 142 -105s140 6 140 103v321h-85v158h346v-158zM658 893l-56 -103l-158 78l-157 -78l-58 101l215 154z" />
    <glyph glyph-name="Ugrave" unicode="&#xd9;" horiz-adv-x="888" 
d="M851 578h-64v-318c0 -216 -101 -270 -339 -270s-347 49 -347 268v320h-64v158h360v-158h-89v-319c0 -94 49 -105 142 -105s140 6 140 103v321h-85v158h346v-158zM583 875l-84 -84l-236 175l128 128z" />
    <glyph glyph-name="dotlessi" unicode="&#x131;" horiz-adv-x="386" 
d="M363 0h-326v144h70v193h-70v148h266v-341h60v-144z" />
    <glyph glyph-name="circumflex" unicode="&#x2c6;" horiz-adv-x="500" 
d="M464 627l-56 -103l-158 78l-157 -78l-58 101l215 154z" />
    <glyph glyph-name="tilde" unicode="&#x2dc;" horiz-adv-x="500" 
d="M491 626c-37 -31 -117 -97 -165 -97s-118 48 -146 48c-19 0 -54 -29 -85 -55l-86 109c37 32 117 97 165 97s118 -48 146 -48c19 0 54 29 85 55z" />
    <glyph glyph-name="macron" unicode="&#xaf;" horiz-adv-x="500" 
d="M411 545h-322v159h322v-159z" />
    <glyph glyph-name="breve" unicode="&#x2d8;" horiz-adv-x="500" 
d="M459 562c-31 -20 -151 -34 -210 -34c-58 0 -173 16 -208 34v174h151v-66c14 -8 32 -12 57 -12c24 0 44 3 59 12v66h151v-174z" />
    <glyph glyph-name="dotaccent" unicode="&#x2d9;" horiz-adv-x="500" 
d="M369 541h-238v190h238v-190z" />
    <glyph glyph-name="ring" unicode="&#x2da;" horiz-adv-x="500" 
d="M421 652c0 -97 -61 -119 -171 -119c-112 0 -171 22 -171 119s59 122 171 122s171 -25 171 -122zM310 652c0 50 -16 59 -60 59s-59 -9 -59 -59s15 -56 59 -56s60 6 60 56z" />
    <glyph glyph-name="cedilla" unicode="&#xb8;" horiz-adv-x="500" 
d="M363 -144c-23 -23 -98 -63 -209 -80l-27 124c40 7 91 22 104 31l-16 84l113 24z" />
    <glyph glyph-name="hungarumlaut" unicode="&#x2dd;" horiz-adv-x="500" 
d="M505 730l-203 -214l-80 57l151 249zM280 730l-203 -214l-80 57l151 249z" />
    <glyph glyph-name="ogonek" unicode="&#x2db;" horiz-adv-x="500" 
d="M373 -98l-27 -127c-109 16 -186 59 -209 82l35 182l113 -24l-16 -84c13 -9 71 -23 104 -29z" />
    <glyph glyph-name="caron" unicode="&#x2c7;" horiz-adv-x="500" 
d="M465 678l-215 -154l-214 152l56 103l158 -78l157 78z" />
    <glyph glyph-name="Euro" unicode="&#x20ac;" horiz-adv-x="769" 
d="M712 21c-36 -10 -174 -30 -296 -30c-169 0 -287 48 -324 233h-64v115h52v29v26h-52v115h64c38 187 159 236 326 236c122 0 258 -20 294 -30v-205h-195v70c-23 3 -62 6 -101 6c-80 0 -112 -25 -125 -77h136v-115h-144v-55h144v-115h-134c14 -49 47 -78 125 -78
c41 0 76 2 99 6v83h195v-214z" />
  </font>
</defs>
</svg>
